Скачать через торрент музыку Davey and the Blu Dog - Play Your Blues Away - 2010, APE бесплатно без регистрации torrent

Если у вас наблюдаются проблемы со скриншотами, переходом по ссылками, скачиванием торрентов - проблемы в блокировщике рекламы AdBlock. #хорошегоДня!


Статистика раздачи
Размер:  393 MB   |    Зарегистрирован:  5 лет 7 месяцев   |    .torrent скачан:  49 раз   |   
Раздают:  1  
   
Загрузка...
 
Автор Сообщение

Umakiro

avatar Umakiro


Davey and the Blu Dog - Play Your Blues Away

Жанр: Blues
Год издания диска: 2010
Аудио кодек: APE (*.ape)
Тип рипа: image+.cue
Битрейт аудио: lossless
Продолжительность: 1:03:19
Источник (релизер): CD (пиратка)
Наличие сканов в содержимом раздачи: да
Треклист:
01. Play Your Blues Away [0:06:20.88]
02. Shut Out [0:05:29.17]
03. Drive Too Fast [0:03:55.64]
04. Slow Down [0:05:36.33]
05. Summertime [0:05:29.50]
06. Nuthin But Trouble [0:08:11.66]
07. Grit My Teeth [0:03:15.57]
08. Lonesome Breakfast [0:07:12.32]
09. Rebel Woman Blues [0:04:58.10]
10. Soul of a Man [0:04:25.22]
11. Lord Lord Lord [0:08:24.38]
  
Exact Audio Copy V0.99 prebeta 4 from 23. January 2008

Отчёт EAC об извлечении, выполненном 30. апреля 2011, 2:36

Davey and the Blu Dog / Play Your Blues Away

Дисковод: Optiarc DVD RW AD-7173A Adapter: 0 ID: 1

Режим чтения : ДостоверностьИспользование точного потока : ДаОтключение кэша аудио : ДаИспользование указателей C2 : Нет

Коррекция смещения при чтении : 48Способность читать области Lead-in и Lead-out : НетЗаполнение пропущенных сэмплов тишиной : ДаУдаление блоков с тишиной в начале и конце : НетПри вычислениях CRC использовались нулевые сэмплы : ДаИнтерфейс : Встроенный Win32-интерфейс для Win NT/2000

Выходной формат : Внутренние WAV-операцииФормат сэмплов : 44.100 Гц; 16 бит; стерео

TOC извлечённого CD

Трек | Старт | Длительность | Начальный сектор | Конечный сектор --------------------------------------------------------------------- 1 | 0:00.00 | 6:20.66 | 0 | 28565 2 | 6:20.66 | 5:29.13 | 28566 | 53253 3 | 11:50.04 | 3:55.48 | 53254 | 70926 4 | 15:45.52 | 5:36.25 | 70927 | 96151 5 | 21:22.02 | 5:29.38 | 96152 | 120864 6 | 26:51.40 | 8:11.50 | 120865 | 157739 7 | 35:03.15 | 3:15.43 | 157740 | 172407 8 | 38:18.58 | 7:12.24 | 172408 | 204831 9 | 45:31.07 | 4:58.08 | 204832 | 227189 10 | 50:29.15 | 4:25.17 | 227190 | 247081 11 | 54:54.32 | 8:24.29 | 247082 | 284910

Характеристики диапазона извлечения и сообщения об ошибках

Выбранный диапазон

Имя файла E:\РАЗДАЧИ\Новая папка (2)\Davey and the Blu Dog - Play Your Blues Away.wav

Пиковый уровень 100.0 % Качество диапазона 99.9 % CRC теста CC0FF5C0 CRC копии CC0FF5C0 Копирование... OK

Ошибок не произошло

AccurateRip: сводка

Трек 1 нет в базе данныхТрек 2 нет в базе данныхТрек 3 нет в базе данныхТрек 4 нет в базе данныхТрек 5 нет в базе данныхТрек 6 нет в базе данныхТрек 7 нет в базе данныхТрек 8 нет в базе данныхТрек 9 нет в базе данныхТрек 10 нет в базе данныхТрек 11 нет в базе данных

Ни одного трека нет в базе AccurateRip

Конец отчёта


Трекер:  [ 04-Мар-2012 08:13 ]

  

Скачать .torrent

Размер .torrent файла 16 KB


Размер: 393 MB
Хэш (hash) релиза: 5bb4a1122983a17ff75f0ebd95bd702051ddae82

Еще никто не оставлял запись к записи скачать торрент Davey and the Blu Dog - Play Your Blues Away - 2010, APE . Будь первым!

!Обратная связь