Скачать через торрент музыку Hundred Seventy Split - The World Wont Stop - 2010, APE бесплатно без регистрации torrent

Если у вас наблюдаются проблемы со скриншотами, переходом по ссылками, скачиванием торрентов - проблемы в блокировщике рекламы AdBlock. #хорошегоДня!


Статистика раздачи
Размер:  375 MB   |    Зарегистрирован:  5 лет 7 месяцев   |    .torrent скачан:  61 раз   |   
Раздают:  1  
   
Загрузка...
 
Автор Сообщение

Umakiro

avatar Umakiro


Hundred Seventy Split - The World Won't Stop

Жанр: Blues-Rock
Год издания диска: 2010
Аудио кодек: APE (*.ape)
Тип рипа: image+.cue
Битрейт аудио: lossless
Продолжительность: 52:24
Источник (релизер): СD
Наличие сканов в содержимом раздачи: да
Треклист:
01. The World Won't Stop [0:05:37.68]
02. Where The Blues Began [0:03:33.37]
03. No Deal [0:03:17.00]
04. Poison [0:06:18.50]
05. The Smoke [0:03:52.50]
06. All My Yesterdays [0:05:17.26]
07. Let The River Flow [0:03:22.00]
08. A Promise Is Forever [0:05:15.66]
09. Yes Man [0:04:14.00]
10. Going Home [0:07:14.09]
11. Wish You Were At Woodstock [0:04:21.41]
  
Exact Audio Copy V0.99 prebeta 4 from 23. January 2008

Отчёт EAC об извлечении, выполненном 30. апреля 2011, 11:08

Hundred Seventy Split / The World Won't Stop

Дисковод: Optiarc DVD RW AD-7173A Adapter: 0 ID: 1

Режим чтения : ДостоверностьИспользование точного потока : ДаОтключение кэша аудио : ДаИспользование указателей C2 : Нет

Коррекция смещения при чтении : 48Способность читать области Lead-in и Lead-out : НетЗаполнение пропущенных сэмплов тишиной : ДаУдаление блоков с тишиной в начале и конце : НетПри вычислениях CRC использовались нулевые сэмплы : ДаИнтерфейс : Встроенный Win32-интерфейс для Win NT/2000

Выходной формат : Внутренние WAV-операцииФормат сэмплов : 44.100 Гц; 16 бит; стерео

TOC извлечённого CD

Трек | Старт | Длительность | Начальный сектор | Конечный сектор --------------------------------------------------------------------- 1 | 0:00.00 | 5:37.51 | 0 | 25325 2 | 5:37.51 | 3:33.28 | 25326 | 41328 3 | 9:11.04 | 3:17.00 | 41329 | 56103 4 | 12:28.04 | 6:18.38 | 56104 | 84491 5 | 18:46.42 | 3:52.38 | 84492 | 101929 6 | 22:39.05 | 5:17.20 | 101930 | 125724 7 | 27:56.25 | 3:22.00 | 125725 | 140874 8 | 31:18.25 | 5:15.50 | 140875 | 164549 9 | 36:34.00 | 4:14.00 | 164550 | 183599 10 | 40:48.00 | 7:14.07 | 183600 | 216156 11 | 48:02.07 | 4:21.31 | 216157 | 235762

Характеристики диапазона извлечения и сообщения об ошибках

Выбранный диапазон

Имя файла E:\РАЗДАЧИ\Новая папка (3)\Hundred Seventy Split - The World Won't Stop.wav

Пиковый уровень 99.6 % Качество диапазона 99.9 % CRC теста 80D939DA CRC копии 80D939DA Копирование... OK

Ошибок не произошло

AccurateRip: сводка

Трек 1 нет в базе данныхТрек 2 нет в базе данныхТрек 3 нет в базе данныхТрек 4 нет в базе данныхТрек 5 нет в базе данныхТрек 6 нет в базе данныхТрек 7 нет в базе данныхТрек 8 нет в базе данныхТрек 9 нет в базе данныхТрек 10 нет в базе данныхТрек 11 нет в базе данных

Ни одного трека нет в базе AccurateRip

Конец отчёта


Трекер:  [ 04-Мар-2012 08:13 ]

  

Скачать .torrent

Размер .torrent файла 15 KB


Размер: 375 MB
Хэш (hash) релиза: 2442c421f16d4a0dbfcb554704840143b0130761

Еще никто не оставлял запись к записи скачать торрент Hundred Seventy Split - The World Wont Stop - 2010, APE . Будь первым!

!Обратная связь