Скачать через торрент музыку Jimmy Thackery - Feel The Heat - 2011, APE бесплатно без регистрации torrent

Если у вас наблюдаются проблемы со скриншотами, переходом по ссылками, скачиванием торрентов - проблемы в блокировщике рекламы AdBlock. #хорошегоДня!


Статистика раздачи
Размер:  439 MB   |    Зарегистрирован:  5 лет 7 месяцев   |    .torrent скачан:  54 раза   |   
Раздают:  1  
   
Загрузка...
 
Автор Сообщение

Umakiro

avatar Umakiro


Jimmy Thackery - Feel The Heat

Жанр: Blues
Год издания диска: 2011
Аудио кодек: APE (*.ape)
Тип рипа: image+.cue
Битрейт аудио: lossless
Продолжительность: 1:08:10
Источник (релизер): CD (пиратка)
Наличие сканов в содержимом раздачи: да
Треклист:
01. Feel The Heat [0:06:06.92]
02. Ain't Gonna Do It [0:02:47.57]
03. Blind Man In The Night [0:08:54.10]
04. Hang Up And Drive [0:05:14.86]
05. Please Accept My Love [0:04:35.69]
06. Take My Blues [0:05:54.46]
07. Bluphoria [0:05:56.50]
08. I'll Be Your Driver (where you wanna go) [0:05:51.36]
09. Bomb The Moon [0:02:39.53]
10. I'm Gone [0:05:55.24]
11. Wannabe [0:06:19.13]
12. Fading Heart [0:07:54.73]
  
Exact Audio Copy V0.99 prebeta 4 from 23. January 2008

Отчёт EAC об извлечении, выполненном 30. апреля 2011, 16:12

Jimmy Thackery / Feel The Heat

Дисковод: Optiarc DVD RW AD-7173A Adapter: 0 ID: 1

Режим чтения : ДостоверностьИспользование точного потока : ДаОтключение кэша аудио : ДаИспользование указателей C2 : Нет

Коррекция смещения при чтении : 48Способность читать области Lead-in и Lead-out : НетЗаполнение пропущенных сэмплов тишиной : ДаУдаление блоков с тишиной в начале и конце : НетПри вычислениях CRC использовались нулевые сэмплы : ДаИнтерфейс : Встроенный Win32-интерфейс для Win NT/2000

Выходной формат : Внутренние WAV-операцииФормат сэмплов : 44.100 Гц; 16 бит; стерео

TOC извлечённого CD

Трек | Старт | Длительность | Начальный сектор | Конечный сектор --------------------------------------------------------------------- 1 | 0:00.00 | 6:06.69 | 0 | 27518 2 | 6:06.69 | 2:47.43 | 27519 | 40086 3 | 8:54.37 | 8:54.08 | 40087 | 80144 4 | 17:48.45 | 5:14.65 | 80145 | 103759 5 | 23:03.35 | 4:35.52 | 103760 | 124436 6 | 27:39.12 | 5:54.35 | 124437 | 151021 7 | 33:33.47 | 5:56.38 | 151022 | 177759 8 | 39:30.10 | 5:51.27 | 177760 | 204111 9 | 45:21.37 | 2:39.40 | 204112 | 216076 10 | 48:01.02 | 5:55.18 | 216077 | 242719 11 | 53:56.20 | 6:19.10 | 242720 | 271154 12 | 60:15.30 | 7:54.55 | 271155 | 306759

Характеристики диапазона извлечения и сообщения об ошибках

Выбранный диапазон

Имя файла E:\РАЗДАЧИ\Новая папка (2)\Jimmy Thackery - Feel The Heat.wav

Пиковый уровень 99.9 % Качество диапазона 99.9 % CRC теста 0627F681 CRC копии 0627F681 Копирование... OK

Ошибок не произошло

AccurateRip: сводка

Трек 1 нет в базе данныхТрек 2 нет в базе данныхТрек 3 нет в базе данныхТрек 4 нет в базе данныхТрек 5 нет в базе данныхТрек 6 нет в базе данныхТрек 7 нет в базе данныхТрек 8 нет в базе данныхТрек 9 нет в базе данныхТрек 10 нет в базе данныхТрек 11 нет в базе данныхТрек 12 нет в базе данных

Ни одного трека нет в базе AccurateRip

Конец отчёта


Трекер:  [ 04-Мар-2012 08:13 ]

  

Скачать .torrent

Размер .torrent файла 18 KB


Размер: 439 MB
Хэш (hash) релиза: 94a1cb139492abd99ed93d7c134b3a4d8a6bfb

Еще никто не оставлял запись к записи скачать торрент Jimmy Thackery - Feel The Heat - 2011, APE . Будь первым!

!Обратная связь