Скачать через торрент музыку Janine Wilson - The Blue Album - 2000, APE бесплатно без регистрации torrent

Если у вас наблюдаются проблемы со скриншотами, переходом по ссылками, скачиванием торрентов - проблемы в блокировщике рекламы AdBlock. #хорошегоДня!


Статистика раздачи
Размер:  318 MB   |    Зарегистрирован:  5 лет 7 месяцев   |    .torrent скачан:  44 раза   |   
Раздают:  1  
   
Загрузка...
 
Автор Сообщение

Umakiro

avatar Umakiro


Janine Wilson - The Blue Album

Жанр: Blues
Год издания диска: 2000
Аудио кодек: APE (*.ape)
Тип рипа: image+.cue
Битрейт аудио: lossless
Продолжительность: 49:23
Источник (релизер): CD
Наличие сканов в содержимом раздачи: да
Треклист:
01. It's Better To Give Than To Receive [0:02:59.96]
02. That Last Night [0:03:56.90]
03. I Was Good To You Baby [0:04:26.96]
04. When My Love Comes Down [0:02:33.74]
05. What Passes For Love [0:05:26.44]
06. Almost Blue [0:02:42.08]
07. Make No Mistake [0:04:38.61]
08. Passionate Kiss [0:04:30.01]
09. And I Cried [0:04:43.94]
10. Breakin' Up Somebody's Home [0:04:26.16]
11. Queen Bee [0:04:36.02]
12. I Smell Trouble [0:04:21.89]
  
Exact Audio Copy V0.99 prebeta 4 from 23. January 2008

Отчёт EAC об извлечении, выполненном 21. апреля 2011, 17:40

Janine Wilson / The Blue Album

Дисковод: PIONEER DVD-RW DVR-118L Adapter: 0 ID: 0

Режим чтения : ДостоверностьИспользование точного потока : ДаОтключение кэша аудио : ДаИспользование указателей C2 : Нет

Коррекция смещения при чтении : 6Способность читать области Lead-in и Lead-out : НетЗаполнение пропущенных сэмплов тишиной : ДаУдаление блоков с тишиной в начале и конце : НетПри вычислениях CRC использовались нулевые сэмплы : ДаИнтерфейс : Встроенный Win32-интерфейс для Win NT/2000

Выходной формат : Внутренние WAV-операцииФормат сэмплов : 44.100 Гц; 16 бит; стерео

TOC извлечённого CD

Трек | Старт | Длительность | Начальный сектор | Конечный сектор --------------------------------------------------------------------- 1 | 0:00.00 | 2:59.72 | 0 | 13496 2 | 2:59.72 | 3:56.68 | 13497 | 31264 3 | 6:56.65 | 4:26.72 | 31265 | 51286 4 | 11:23.62 | 2:33.56 | 51287 | 62817 5 | 13:57.43 | 5:26.33 | 62818 | 87300 6 | 19:24.01 | 2:42.06 | 87301 | 99456 7 | 22:06.07 | 4:38.46 | 99457 | 120352 8 | 26:44.53 | 4:30.01 | 120353 | 140603 9 | 31:14.54 | 4:43.71 | 140604 | 161899 10 | 35:58.50 | 4:26.12 | 161900 | 181861 11 | 40:24.62 | 4:36.02 | 181862 | 202563 12 | 45:00.64 | 4:21.67 | 202564 | 222205

Характеристики диапазона извлечения и сообщения об ошибках

Выбранный диапазон

Имя файла D:\КОЛЛЕКЦИЯ 11\Новая папка (21)\Janine Wilson - The Blue Album.wav

Пиковый уровень 98.8 % Качество диапазона 100.0 % CRC теста CAE8E824 CRC копии CAE8E824 Копирование... OK

Ошибок не произошло

AccurateRip: сводка

Трек 1 нет в базе данныхТрек 2 нет в базе данныхТрек 3 нет в базе данныхТрек 4 нет в базе данныхТрек 5 нет в базе данныхТрек 6 нет в базе данныхТрек 7 нет в базе данныхТрек 8 нет в базе данныхТрек 9 нет в базе данныхТрек 10 нет в базе данныхТрек 11 нет в базе данныхТрек 12 нет в базе данных

Ни одного трека нет в базе AccurateRip

Конец отчёта


Трекер:  [ 04-Мар-2012 08:12 ]

  

Скачать .torrent

Размер .torrent файла 13 KB


Размер: 318 MB
Хэш (hash) релиза: 5fbbbb2bc3a83c5b8717a553a8a4dbae9f2731d9

Еще никто не оставлял запись к записи скачать торрент Janine Wilson - The Blue Album - 2000, APE . Будь первым!

!Обратная связь