Скачать через торрент музыку Joanna Connor - Fight - 1992, APE бесплатно без регистрации torrent

Если у вас наблюдаются проблемы со скриншотами, переходом по ссылками, скачиванием торрентов - проблемы в блокировщике рекламы AdBlock. #хорошегоДня!


Статистика раздачи
Размер:  268 MB   |    Зарегистрирован:  5 лет 7 месяцев   |    .torrent скачан:  52 раза   |   
Раздают:  1  
   
Загрузка...
 
Автор Сообщение

Umakiro

avatar Umakiro


Joanna Connor - Fight

Жанр: Blues-Rock
Год издания диска: 1992
Аудио кодек: APE (*.ape)
Тип рипа: image+.cue
Битрейт аудио: lossless
Продолжительность: 43:54
Источник (релизер): CD
Наличие сканов в содержимом раздачи: да
Треклист:
01. Walkin' Blues [0:04:22.00]
02. Living on the Road [0:04:13.96]
03. Fight [0:03:56.97]
04. Walk Away [0:03:52.46]
05. Heaven [0:03:36.00]
06. Lost [0:03:27.02]
07. Texas [0:05:21.97]
08. Your Love was Never Mine [0:04:01.00]
09. I got Love [0:04:07.49]
10. Child of Two Worlds [0:03:33.97]
11. No Good for Me [0:03:21.06]
  
Exact Audio Copy V0.99 prebeta 4 from 23. January 2008

Отчёт EAC об извлечении, выполненном 2. марта 2011, 2:34

Joanna Connor / Fight

Дисковод: Optiarc DVD RW AD-7173A Adapter: 0 ID: 1

Режим чтения : ДостоверностьИспользование точного потока : ДаОтключение кэша аудио : ДаИспользование указателей C2 : Нет

Коррекция смещения при чтении : 48Способность читать области Lead-in и Lead-out : НетЗаполнение пропущенных сэмплов тишиной : ДаУдаление блоков с тишиной в начале и конце : НетПри вычислениях CRC использовались нулевые сэмплы : ДаИнтерфейс : Встроенный Win32-интерфейс для Win NT/2000

Выходной формат : Внутренние WAV-операцииФормат сэмплов : 44.100 Гц; 16 бит; стерео

TOC извлечённого CD

Трек | Старт | Длительность | Начальный сектор | Конечный сектор --------------------------------------------------------------------- 1 | 0:00.50 | 4:22.00 | 50 | 19699 2 | 4:22.50 | 4:13.72 | 19700 | 38746 3 | 8:36.47 | 3:56.73 | 38747 | 56519 4 | 12:33.45 | 3:52.35 | 56520 | 73954 5 | 16:26.05 | 3:36.00 | 73955 | 90154 6 | 20:02.05 | 3:27.02 | 90155 | 105681 7 | 23:29.07 | 5:21.73 | 105682 | 129829 8 | 28:51.05 | 4:01.00 | 129830 | 147904 9 | 32:52.05 | 4:07.37 | 147905 | 166466 10 | 36:59.42 | 3:33.73 | 166467 | 182514 11 | 40:33.40 | 3:21.05 | 182515 | 197594

Характеристики диапазона извлечения и сообщения об ошибках

Выбранный диапазон

Имя файла D:\КОЛЛЕКЦИЯ 10\Новая папка (3)\Joanna Connor - Fight.wav

Пиковый уровень 100.0 % Качество диапазона 99.9 % CRC теста 1B18217B CRC копии 1B18217B Копирование... OK

Ошибок не произошло

AccurateRip: сводка

Трек 1 точное извлечение (доверие 2) [96A4FEE9]Трек 2 точное извлечение (доверие 2) [AC13A513]Трек 3 точное извлечение (доверие 2) [96F545E0]Трек 4 точное извлечение (доверие 2) [97AD0192]Трек 5 точное извлечение (доверие 2) [17510DFD]Трек 6 точное извлечение (доверие 2) [825124D2]Трек 7 точное извлечение (доверие 2) [A5B5F2C3]Трек 8 точное извлечение (доверие 2) [A813535C]Трек 9 точное извлечение (доверие 2) [9D9B0328]Трек 10 точное извлечение (доверие 2) [AD0852ED]Трек 11 точное извлечение (доверие 2) [E05D7302]

Все треки извлечены точно

Конец отчёта


Трекер:  [ 04-Мар-2012 08:12 ]

  

Скачать .torrent

Размер .torrent файла 11 KB


Размер: 268 MB
Хэш (hash) релиза: 48e34d8f4a2204abf373b15efd63277c67780ebc

Еще никто не оставлял запись к записи скачать торрент Joanna Connor - Fight - 1992, APE . Будь первым!

!Обратная связь