Скачать через торрент музыку Joanna Connor Band - Rock And Roll Gypsy - 1995, APE бесплатно без регистрации torrent

Если у вас наблюдаются проблемы со скриншотами, переходом по ссылками, скачиванием торрентов - проблемы в блокировщике рекламы AdBlock. #хорошегоДня!


Статистика раздачи
Размер:  309 MB   |    Зарегистрирован:  5 лет 7 месяцев   |    .torrent скачан:  52 раза   |   
Раздают:  1  
   
Загрузка...
 
Автор Сообщение

Umakiro

avatar Umakiro


Joanna Connor Band - Rock And Roll Gypsy

Жанр: Blues-Rock
Год издания диска: 1995
Аудио кодек: APE (*.ape)
Тип рипа: image+.cue
Битрейт аудио: lossless
Продолжительность: 47:24
Источник (релизер): CD
Наличие сканов в содержимом раздачи: да
Треклист:
01. Never Been Rocked Enough [0:03:26.78]
02. Rock And Roll Gypsy [0:04:04.66]
03. Howlin' [0:03:55.49]
04. Slipping Away [0:05:25.94]
05. Rain On My Window [0:04:53.48]
06. Think About Me [0:05:14.24]
07. Driving Wheel [0:03:46.58]
08. You're So Fine [0:05:09.93]
09. Fire [0:02:52.44]
10. You're Going With Me [0:05:05.08]
11. Child From Two Worlds [0:03:29.73]
  
Exact Audio Copy V0.99 prebeta 4 from 23. January 2008

Отчёт EAC об извлечении, выполненном 2. марта 2011, 2:14

Joanna Connor Band / Rock And Roll Gypsy

Дисковод: Optiarc DVD RW AD-7173A Adapter: 0 ID: 1

Режим чтения : ДостоверностьИспользование точного потока : ДаОтключение кэша аудио : ДаИспользование указателей C2 : Нет

Коррекция смещения при чтении : 48Способность читать области Lead-in и Lead-out : НетЗаполнение пропущенных сэмплов тишиной : ДаУдаление блоков с тишиной в начале и конце : НетПри вычислениях CRC использовались нулевые сэмплы : ДаИнтерфейс : Встроенный Win32-интерфейс для Win NT/2000

Выходной формат : Внутренние WAV-операцииФормат сэмплов : 44.100 Гц; 16 бит; стерео

TOC извлечённого CD

Трек | Старт | Длительность | Начальный сектор | Конечный сектор --------------------------------------------------------------------- 1 | 0:00.30 | 3:26.59 | 30 | 15538 2 | 3:27.14 | 4:04.50 | 15539 | 33888 3 | 7:31.64 | 3:55.37 | 33889 | 51550 4 | 11:27.26 | 5:25.71 | 51551 | 75996 5 | 16:53.22 | 4:53.36 | 75997 | 98007 6 | 21:46.58 | 5:14.18 | 98008 | 121575 7 | 27:01.01 | 3:46.44 | 121576 | 138569 8 | 30:47.45 | 5:09.70 | 138570 | 161814 9 | 35:57.40 | 2:52.33 | 161815 | 174747 10 | 38:49.73 | 5:05.06 | 174748 | 197628 11 | 43:55.04 | 3:29.55 | 197629 | 213358

Характеристики диапазона извлечения и сообщения об ошибках

Выбранный диапазон

Имя файла D:\КОЛЛЕКЦИЯ 10\Новая папка (2)\Joanna Connor Band - Rock And Roll Gypsy.wav

Пиковый уровень 100.0 % Качество диапазона 99.9 % CRC теста 330FE46A CRC копии 330FE46A Копирование... OK

Ошибок не произошло

AccurateRip: сводка

Трек 1 точность не определена (достоверность 4) [70C34BB4], AccurateRip вернул [4D9A4BC7]Трек 2 точность не определена (достоверность 4) [E18AE8F2], AccurateRip вернул [6B01B526]Трек 3 точность не определена (достоверность 4) [FDEE8B4B], AccurateRip вернул [2924D1DD]Трек 4 точность не определена (достоверность 4) [CE321E3E], AccurateRip вернул [69712981]Трек 5 точность не определена (достоверность 4) [605CD7FF], AccurateRip вернул [721C27F2]Трек 6 точность не определена (достоверность 4) [A85502B7], AccurateRip вернул [4A52CD5A]Трек 7 точность не определена (достоверность 4) [2D0CE894], AccurateRip вернул [DD5CA551]Трек 8 точность не определена (достоверность 4) [7418795A], AccurateRip вернул [C7EE7B56]Трек 9 точность не определена (достоверность 4) [820DE33C], AccurateRip вернул [01410749]Трек 10 точность не определена (достоверность 4) [01741FAA], AccurateRip вернул [4F51BA7A]Трек 11 точность не определена (достоверность 4) [7B7748FC], AccurateRip вернул [F85D179C]

Ни один трек не прошёл проверки на точностьВ вашей базе может быть иной вариант штамповки диска

Конец отчёта


Трекер:  [ 04-Мар-2012 08:11 ]

  

Скачать .torrent

Размер .torrent файла 13 KB


Размер: 309 MB
Хэш (hash) релиза: c9664bcd2be16f854d0d6f018c80291dd96bc1ad

Еще никто не оставлял запись к записи скачать торрент Joanna Connor Band - Rock And Roll Gypsy - 1995, APE . Будь первым!

!Обратная связь