Скачать через торрент музыку Sandy Carroll - Memphis Rain - 1997, APE бесплатно без регистрации torrent

Если у вас наблюдаются проблемы со скриншотами, переходом по ссылками, скачиванием торрентов - проблемы в блокировщике рекламы AdBlock. #хорошегоДня!


Статистика раздачи
Размер:  281 MB   |    Зарегистрирован:  5 лет 7 месяцев   |    .torrent скачан:  49 раз   |   
Раздают:  1  
   
Загрузка...
 
Автор Сообщение

Umakiro

avatar Umakiro


Sandy Carroll - Memphis Rain

Жанр: Blues
Год издания диска: 1997
Аудио кодек: APE (*.ape)
Тип рипа: image+.cue
Битрейт аудио: lossless
Продолжительность: 44:39
Источник (релизер): CD
Наличие сканов в содержимом раздачи: да
Треклист:
01. Forecast Blues [0:03:45.76]
02. Too Many Hats [0:03:25.53]
03. Memphis Rain [0:04:26.10]
04. While You're Up [0:02:33.42]
05. Help Me Bear It All [0:05:02.84]
06. Honey Lovin' Gumbo [0:02:35.40]
07. Blues Thang [0:03:56.33]
08. Just As I Am [0:04:23.20]
09. Feel Like Love [0:02:48.53]
10. Good Line [0:03:42.20]
11. Memphis [0:04:24.02]
12. Bad Dog Boogie [0:03:35.46]
  
Exact Audio Copy V0.99 prebeta 4 from 23. January 2008

Отчёт EAC об извлечении, выполненном 25. декабря 2010, 0:33

Sandy Carroll / Memphis Rain

Дисковод: PLEXTOR DVDR PX-820A Adapter: 3 ID: 1

Режим чтения : ДостоверностьИспользование точного потока : ДаОтключение кэша аудио : ДаИспользование указателей C2 : Нет

Коррекция смещения при чтении : 48Способность читать области Lead-in и Lead-out : НетЗаполнение пропущенных сэмплов тишиной : ДаУдаление блоков с тишиной в начале и конце : НетПри вычислениях CRC использовались нулевые сэмплы : ДаИнтерфейс : Встроенный Win32-интерфейс для Win NT/2000

Выходной формат : Внутренние WAV-операцииФормат сэмплов : 44.100 Гц; 16 бит; стерео

TOC извлечённого CD

Трек | Старт | Длительность | Начальный сектор | Конечный сектор --------------------------------------------------------------------- 1 | 0:00.00 | 3:45.57 | 0 | 16931 2 | 3:45.57 | 3:25.40 | 16932 | 32346 3 | 7:11.22 | 4:26.08 | 32347 | 52304 4 | 11:37.30 | 2:33.32 | 52305 | 63811 5 | 14:10.62 | 5:02.63 | 63812 | 86524 6 | 19:13.50 | 2:35.30 | 86525 | 98179 7 | 21:49.05 | 3:56.25 | 98180 | 115904 8 | 25:45.30 | 4:23.15 | 115905 | 135644 9 | 30:08.45 | 2:48.40 | 135645 | 148284 10 | 32:57.10 | 3:42.15 | 148285 | 164949 11 | 36:39.25 | 4:24.02 | 164950 | 184751 12 | 41:03.27 | 3:35.35 | 184752 | 200911

Характеристики диапазона извлечения и сообщения об ошибках

Выбранный диапазон

Имя файла D:\КОЛЛЕКЦИЯ 9\Новая папка (3)\Sandy Carroll - Memphis Rain.wav

Пиковый уровень 100.0 % Качество диапазона 100.0 % CRC теста B109AE23 CRC копии B109AE23 Копирование... OK

Ошибок не произошло

AccurateRip: сводка

Трек 1 нет в базе данныхТрек 2 нет в базе данныхТрек 3 нет в базе данныхТрек 4 нет в базе данныхТрек 5 нет в базе данныхТрек 6 нет в базе данныхТрек 7 нет в базе данныхТрек 8 нет в базе данныхТрек 9 нет в базе данныхТрек 10 нет в базе данныхТрек 11 нет в базе данныхТрек 12 нет в базе данных

Ни одного трека нет в базе AccurateRip

Конец отчёта


Трекер:  [ 04-Мар-2012 08:11 ]

  

Скачать .torrent

Размер .torrent файла 12 KB


Размер: 281 MB
Хэш (hash) релиза: bb28f665e560e65cda7c113e6c9f8c70c15c5e6a

Еще никто не оставлял запись к записи скачать торрент Sandy Carroll - Memphis Rain - 1997, APE . Будь первым!

!Обратная связь