Скачать через торрент музыку Sue Foley - Big City Blues - 1995, APE бесплатно без регистрации torrent

Если у вас наблюдаются проблемы со скриншотами, переходом по ссылками, скачиванием торрентов - проблемы в блокировщике рекламы AdBlock. #хорошегоДня!


Статистика раздачи
Размер:  251 MB   |    Зарегистрирован:  5 лет 7 месяцев   |    .torrent скачан:  43 раза   |   
Раздают:  1  
   
Загрузка...
 
Автор Сообщение

Umakiro

avatar Umakiro


Sue Foley - Big City Blues

Жанр: Blues
Год издания диска: 1995
Аудио кодек: APE (*.ape)
Тип рипа: image+.cue
Битрейт аудио: lossless
Продолжительность: 39:49
Источник (релизер): CD
Наличие сканов в содержимом раздачи: да
Треклист:
01. Big City Blues [0:03:34.26]
02. Howlin' For My Darling [0:03:38.21]
03. To Be Alone With You [0:04:16.58]
04. One Hundred Dollar Bill [0:02:21.53]
05. Ain't Gonna Worry No More [0:02:36.54]
06. This Time [0:03:45.41]
07. As Long As I Have You [0:04:16.86]
08. Highway Bound [0:04:04.25]
09. If You Gotta Go [0:03:49.36]
10. My Baby's Sweeter [0:04:20.82]
11. Girl's Night Out [0:03:04.84]
  
Exact Audio Copy V0.99 prebeta 4 from 23. January 2008

Отчёт EAC об извлечении, выполненном 3. марта 2011, 0:21

Sue Foley / Big City Blues

Дисковод: Optiarc DVD RW AD-7173A Adapter: 0 ID: 1

Режим чтения : ДостоверностьИспользование точного потока : ДаОтключение кэша аудио : ДаИспользование указателей C2 : Нет

Коррекция смещения при чтении : 48Способность читать области Lead-in и Lead-out : НетЗаполнение пропущенных сэмплов тишиной : ДаУдаление блоков с тишиной в начале и конце : НетПри вычислениях CRC использовались нулевые сэмплы : ДаИнтерфейс : Встроенный Win32-интерфейс для Win NT/2000

Выходной формат : Внутренние WAV-операцииФормат сэмплов : 44.100 Гц; 16 бит; стерео

TOC извлечённого CD

Трек | Старт | Длительность | Начальный сектор | Конечный сектор --------------------------------------------------------------------- 1 | 0:00.00 | 3:34.20 | 0 | 16069 2 | 3:34.20 | 3:38.16 | 16070 | 32435 3 | 7:12.36 | 4:16.44 | 32436 | 51679 4 | 11:29.05 | 2:21.40 | 51680 | 62294 5 | 13:50.45 | 2:36.41 | 62295 | 74035 6 | 16:27.11 | 3:45.31 | 74036 | 90941 7 | 20:12.42 | 4:16.65 | 90942 | 110206 8 | 24:29.32 | 4:04.19 | 110207 | 128525 9 | 28:33.51 | 3:49.27 | 128526 | 145727 10 | 32:23.03 | 4:20.62 | 145728 | 165289 11 | 36:43.65 | 3:04.63 | 165290 | 179152

Характеристики диапазона извлечения и сообщения об ошибках

Выбранный диапазон

Имя файла D:\КОЛЛЕКЦИЯ 10\Новая папка\Sue Foley - Big City Blues.wav

Пиковый уровень 100.0 % Качество диапазона 100.0 % CRC теста 8B503F2D CRC копии 8B503F2D Копирование... OK

Ошибок не произошло

AccurateRip: сводка

Трек 1 точное извлечение (доверие 8) [7DB54969]Трек 2 точное извлечение (доверие 7) [CE70BE03]Трек 3 точное извлечение (доверие 8) [0858EF28]Трек 4 точное извлечение (доверие 7) [C4C1840D]Трек 5 точное извлечение (доверие 7) [43B020E2]Трек 6 точное извлечение (доверие 7) [9CCC6F8B]Трек 7 точное извлечение (доверие 7) [50F2E249]Трек 8 точное извлечение (доверие 8) [ADC3D020]Трек 9 точное извлечение (доверие 8) [04282193]Трек 10 точное извлечение (доверие 7) [2529E6D3]Трек 11 точное извлечение (доверие 8) [9440476E]

Все треки извлечены точно

Конец отчёта


Трекер:  [ 04-Мар-2012 08:10 ]

  

Скачать .torrent

Размер .torrent файла 20 KB


Размер: 251 MB
Хэш (hash) релиза: ce57cf5e503637acbe72a783c22926217e08d9a1

Еще никто не оставлял запись к записи скачать торрент Sue Foley - Big City Blues - 1995, APE . Будь первым!

!Обратная связь