Скачать через торрент музыку Tommie Lee Bradley - Soul Soup - 2006, APE бесплатно без регистрации torrent

Если у вас наблюдаются проблемы со скриншотами, переходом по ссылками, скачиванием торрентов - проблемы в блокировщике рекламы AdBlock. #хорошегоДня!


Статистика раздачи
Размер:  383 MB   |    Зарегистрирован:  5 лет 7 месяцев   |    .torrent скачан:  51 раз   |   
Раздают:  1  
   
Загрузка...
 
Автор Сообщение

Umakiro

avatar Umakiro


Tommie Lee Bradley - Soul Soup

Жанр: Soul-Blues
Год издания диска: 2006
Аудио кодек: APE (*.ape)
Тип рипа: image+.cue
Битрейт аудио: lossless
Продолжительность: 56:43
Источник (релизер): CD
Наличие сканов в содержимом раздачи: да
Треклист:
01. Soul Soup [0:03:51.12]
02. Don't Open That Door [0:04:14.34]
03. Blue Motel [0:04:24.25]
04. Walkin' After Midnight [0:03:52.84]
05. Sometimes You Just Gotta Hurt [0:03:22.81]
06. Mother Earth [0:06:08.94]
07. Hurricane Sam [0:03:25.97]
08. I Like a Guy What Takes His Time [0:04:40.02]
09. Lookin' For a Friend [0:05:12.46]
10. Ruby Tuesday [0:04:54.22]
11. What's a Child to Do? [0:04:25.32]
12. Spare the Truth [0:03:45.25]
13. If I Could Take Your Pain [0:04:25.45]
  
Exact Audio Copy V0.99 prebeta 4 from 23. January 2008

Отчёт EAC об извлечении, выполненном 21. апреля 2011, 18:58

Tommie Lee Bradley / Soul Soup

Дисковод: Optiarc DVD RW AD-7173A Adapter: 0 ID: 1

Режим чтения : ДостоверностьИспользование точного потока : ДаОтключение кэша аудио : ДаИспользование указателей C2 : Нет

Коррекция смещения при чтении : 48Способность читать области Lead-in и Lead-out : НетЗаполнение пропущенных сэмплов тишиной : ДаУдаление блоков с тишиной в начале и конце : НетПри вычислениях CRC использовались нулевые сэмплы : ДаИнтерфейс : Встроенный Win32-интерфейс для Win NT/2000

Выходной формат : Внутренние WAV-операцииФормат сэмплов : 44.100 Гц; 16 бит; стерео

TOC извлечённого CD

Трек | Старт | Длительность | Начальный сектор | Конечный сектор --------------------------------------------------------------------- 1 | 0:00.00 | 3:51.09 | 0 | 17333 2 | 3:51.09 | 4:14.26 | 17334 | 36409 3 | 8:05.35 | 4:24.19 | 36410 | 56228 4 | 12:29.54 | 3:52.63 | 56229 | 73691 5 | 16:22.42 | 3:22.61 | 73692 | 88902 6 | 19:45.28 | 6:08.71 | 88903 | 116573 7 | 25:54.24 | 3:25.73 | 116574 | 132021 8 | 29:20.22 | 4:40.02 | 132022 | 153023 9 | 34:00.24 | 5:12.35 | 153024 | 176458 10 | 39:12.59 | 4:54.17 | 176459 | 198525 11 | 44:07.01 | 4:25.24 | 198526 | 218424 12 | 48:32.25 | 3:45.19 | 218425 | 235318 13 | 52:17.44 | 4:25.34 | 235319 | 255227

Характеристики диапазона извлечения и сообщения об ошибках

Выбранный диапазон

Имя файла D:\КОЛЛЕКЦИЯ 11\Новая папка (23)\Tommie Lee Bradley - Soul Soup.wav

Пиковый уровень 98.9 % Качество диапазона 100.0 % CRC теста 2E4036C6 CRC копии 2E4036C6 Копирование... OK

Ошибок не произошло

AccurateRip: сводка

Трек 1 нет в базе данныхТрек 2 нет в базе данныхТрек 3 нет в базе данныхТрек 4 нет в базе данныхТрек 5 нет в базе данныхТрек 6 нет в базе данныхТрек 7 нет в базе данныхТрек 8 нет в базе данныхТрек 9 нет в базе данныхТрек 10 нет в базе данныхТрек 11 нет в базе данныхТрек 12 нет в базе данныхТрек 13 нет в базе данных

Ни одного трека нет в базе AccurateRip

Конец отчёта


Трекер:  [ 04-Мар-2012 08:10 ]

  

Скачать .torrent

Размер .torrent файла 16 KB


Размер: 383 MB
Хэш (hash) релиза: 1b68070c3d5e6f408848003cadfe1401daca2f1c

Еще никто не оставлял запись к записи скачать торрент Tommie Lee Bradley - Soul Soup - 2006, APE . Будь первым!

!Обратная связь