Скачать через торрент музыку The King Brothers - Mo Heat - 2001, APE бесплатно без регистрации torrent

Если у вас наблюдаются проблемы со скриншотами, переходом по ссылками, скачиванием торрентов - проблемы в блокировщике рекламы AdBlock. #хорошегоДня!


Статистика раздачи
Размер:  354 MB   |    Зарегистрирован:  5 лет 7 месяцев   |    .torrent скачан:  45 раз   |   
Раздают:  1  
   
Загрузка...
 
Автор Сообщение

Umakiro

avatar Umakiro


The King Brothers - Mo' Heat

Жанр: Blues
Год издания диска: 2001
Аудио кодек: APE (*.ape)
Тип рипа: image+.cue
Битрейт аудио: lossless
Продолжительность: 53:45
Источник (релизер): CD
Наличие сканов в содержимом раздачи: да
Треклист:
01. Sleepy [0:03:33.62]
02. Midnight [0:04:02.60]
03. Glad to Be Back [0:04:21.57]
04. Miniskirt [0:04:30.49]
05. When You Move You Lose [0:05:36.20]
06. Baby Let Me Come Back [0:02:54.80]
07. Won't Be Gettin' None Tonight [0:05:54.86]
08. Shake It [0:04:16.46]
09. Build a Fire [0:04:56.13]
10. Plan B [0:04:12.90]
11. Got to Be Some Change Made [0:04:33.36]
12. Girl What's Wrong [0:04:52.46]
  
Exact Audio Copy V0.99 prebeta 4 from 23. January 2008

Отчёт EAC об извлечении, выполненном 21. апреля 2011, 12:30

The King Brothers / Mo' Heat

Дисковод: PIONEER DVD-RW DVR-118L Adapter: 0 ID: 0

Режим чтения : ДостоверностьИспользование точного потока : ДаОтключение кэша аудио : ДаИспользование указателей C2 : Нет

Коррекция смещения при чтении : 6Способность читать области Lead-in и Lead-out : НетЗаполнение пропущенных сэмплов тишиной : ДаУдаление блоков с тишиной в начале и конце : НетПри вычислениях CRC использовались нулевые сэмплы : ДаИнтерфейс : Встроенный Win32-интерфейс для Win NT/2000

Выходной формат : Внутренние WAV-операцииФормат сэмплов : 44.100 Гц; 16 бит; стерео

TOC извлечённого CD

Трек | Старт | Длительность | Начальный сектор | Конечный сектор --------------------------------------------------------------------- 1 | 0:00.00 | 3:33.47 | 0 | 16021 2 | 3:33.47 | 4:02.45 | 16022 | 34216 3 | 7:36.17 | 4:21.43 | 34217 | 53834 4 | 11:57.60 | 4:30.37 | 53835 | 74121 5 | 16:28.22 | 5:36.15 | 74122 | 99336 6 | 22:04.37 | 2:54.60 | 99337 | 112446 7 | 24:59.22 | 5:54.65 | 112447 | 139061 8 | 30:54.12 | 4:16.35 | 139062 | 158296 9 | 35:10.47 | 4:56.10 | 158297 | 180506 10 | 40:06.57 | 4:12.68 | 180507 | 199474 11 | 44:19.50 | 4:33.27 | 199475 | 219976 12 | 48:53.02 | 4:52.35 | 219977 | 241911

Характеристики диапазона извлечения и сообщения об ошибках

Выбранный диапазон

Имя файла D:\КОЛЛЕКЦИЯ 11\Новая папка (16)\The King Brothers - Mo' Heat.wav

Пиковый уровень 98.8 % Качество диапазона 100.0 % CRC теста 878EE2D7 CRC копии 878EE2D7 Копирование... OK

Ошибок не произошло

AccurateRip: сводка

Трек 1 нет в базе данныхТрек 2 нет в базе данныхТрек 3 нет в базе данныхТрек 4 нет в базе данныхТрек 5 нет в базе данныхТрек 6 нет в базе данныхТрек 7 нет в базе данныхТрек 8 нет в базе данныхТрек 9 нет в базе данныхТрек 10 нет в базе данныхТрек 11 нет в базе данныхТрек 12 нет в базе данных

Ни одного трека нет в базе AccurateRip

Конец отчёта


Трекер:  [ 04-Мар-2012 08:09 ]

  

Скачать .torrent

Размер .torrent файла 14 KB


Размер: 354 MB
Хэш (hash) релиза: 52d5c42f189384aed0df861ec3b255c382fc3da3

Еще никто не оставлял запись к записи скачать торрент The King Brothers - Mo Heat - 2001, APE . Будь первым!

!Обратная связь