Скачать через торрент музыку The Blind Boys Of Alabama - Take The High Road - 2011, APE бесплатно без регистрации torrent

Если у вас наблюдаются проблемы со скриншотами, переходом по ссылками, скачиванием торрентов - проблемы в блокировщике рекламы AdBlock. #хорошегоДня!


Статистика раздачи
Размер:  325 MB   |    Зарегистрирован:  5 лет 7 месяцев   |    .torrent скачан:  41 раз   |   
Раздают:  1  
   
Загрузка...
 
Автор Сообщение

Umakiro

avatar Umakiro


The Blind Boys Of Alabama - Take The High Road

Жанр: Blues, Gospel
Год издания диска: 2011
Аудио кодек: APE (*.ape)
Тип рипа: image+.cue
Битрейт аудио: lossless
Продолжительность: 54:01
Источник (релизер): CD
Наличие сканов в содержимом раздачи: да
Треклист:
01. Take The High Road [0:03:48.32]
02. Jesus Hold My Hand [0:04:30.76]
03. Have Thine Own Way, Lord [0:03:57.60]
04. I Was A Burden [0:04:47.26]
05. Can You Give Me A Drink [0:04:26.57]
06. Family Bible [0:03:46.60]
07. Jesus Built A Bridge To Heaven [0:03:53.32]
08. I Know A Place [0:04:47.24]
09. Why Don't You Live Right So God Can Use You [0:03:50.13]
10. Lead Me Home [0:04:56.02]
11. Stand By Me [0:03:32.26]
12. I Saw The Light [0:03:18.78]
13. The Last Mile Of The Way [0:04:26.54]
  
Exact Audio Copy V0.99 prebeta 4 from 23. January 2008

Отчёт EAC об извлечении, выполненном 29. мая 2011, 4:36

The Blind Boys Of Alabama / Take The High Road

Дисковод: Optiarc DVD RW AD-7173A Adapter: 0 ID: 1

Режим чтения : ДостоверностьИспользование точного потока : ДаОтключение кэша аудио : ДаИспользование указателей C2 : Нет

Коррекция смещения при чтении : 48Способность читать области Lead-in и Lead-out : НетЗаполнение пропущенных сэмплов тишиной : ДаУдаление блоков с тишиной в начале и конце : НетПри вычислениях CRC использовались нулевые сэмплы : ДаИнтерфейс : Встроенный Win32-интерфейс для Win NT/2000

Выходной формат : Внутренние WAV-операцииФормат сэмплов : 44.100 Гц; 16 бит; стерео

TOC извлечённого CD

Трек | Старт | Длительность | Начальный сектор | Конечный сектор --------------------------------------------------------------------- 1 | 0:00.00 | 3:48.24 | 0 | 17123 2 | 3:48.24 | 4:30.57 | 17124 | 37430 3 | 8:19.06 | 3:57.45 | 37431 | 55250 4 | 12:16.51 | 4:47.20 | 55251 | 76795 5 | 17:03.71 | 4:26.43 | 76796 | 96788 6 | 21:30.39 | 3:46.45 | 96789 | 113783 7 | 25:17.09 | 3:53.24 | 113784 | 131282 8 | 29:10.33 | 4:47.18 | 131283 | 152825 9 | 33:57.51 | 3:50.10 | 152826 | 170085 10 | 37:47.61 | 4:56.02 | 170086 | 192287 11 | 42:43.63 | 3:32.20 | 192288 | 208207 12 | 46:16.08 | 3:18.59 | 208208 | 223116 13 | 49:34.67 | 4:26.41 | 223117 | 243107

Характеристики диапазона извлечения и сообщения об ошибках

Выбранный диапазон

Имя файла E:\РАЗДАЧИ\The Blind Boys Of Alabama-Take The High Road\The Blind Boys Of Alabama - Take The High Road.wav

Пиковый уровень 98.1 % Качество диапазона 99.9 % CRC теста F2E18D2B CRC копии F2E18D2B Копирование... OK

Ошибок не произошло

AccurateRip: сводка

Трек 1 нет в базе данныхТрек 2 нет в базе данныхТрек 3 нет в базе данныхТрек 4 нет в базе данныхТрек 5 нет в базе данныхТрек 6 нет в базе данныхТрек 7 нет в базе данныхТрек 8 нет в базе данныхТрек 9 нет в базе данныхТрек 10 нет в базе данныхТрек 11 нет в базе данныхТрек 12 нет в базе данныхТрек 13 нет в базе данных

Ни одного трека нет в базе AccurateRip

Конец отчёта


Трекер:  [ 04-Мар-2012 08:09 ]

  

Скачать .torrent

Размер .torrent файла 13 KB


Размер: 325 MB
Хэш (hash) релиза: 0225cceda44e33128afc6b026fba40cd6cc7ef11

Еще никто не оставлял запись к записи скачать торрент The Blind Boys Of Alabama - Take The High Road - 2011, APE . Будь первым!

!Обратная связь