Скачать через торрент музыку Warren Haynes - Man In Motion - 2011, APE бесплатно без регистрации torrent

Если у вас наблюдаются проблемы со скриншотами, переходом по ссылками, скачиванием торрентов - проблемы в блокировщике рекламы AdBlock. #хорошегоДня!


Статистика раздачи
Размер:  408 MB   |    Зарегистрирован:  5 лет 7 месяцев   |    .torrent скачан:  47 раз   |   
Раздают:  1  
   
Загрузка...
 
Автор Сообщение

Umakiro

avatar Umakiro


Warren Haynes - Man In Motion

Жанр: Blues
Год издания диска: 2011
Аудио кодек: APE (*.ape)
Тип рипа: image+.cue
Битрейт аудио: lossless
Продолжительность: 1:06:04
Источник (релизер): CD
Наличие сканов в содержимом раздачи: да
Треклист:
01. Man In Motion [0:07:52.40]
02. River's Gonna Rise [0:06:51.09]
03. Everyday Will Be Like A Holiday [0:05:29.12]
04. Sick Of My Shadow [0:06:56.88]
05. Your Wildest Dreams [0:07:18.36]
06. On A Real Lonely Night [0:07:38.01]
07. Hattiesburg Hustle [0:06:33.28]
08. A Friend To You [0:05:44.10]
09. Take A Bullet [0:05:24.89]
10. Save Me [0:06:16.16]
  
Exact Audio Copy V0.99 prebeta 4 from 23. January 2008

Отчёт EAC об извлечении, выполненном 29. мая 2011, 6:21

Warren Haynes / Man In Motion

Дисковод: Optiarc DVD RW AD-7173A Adapter: 0 ID: 1

Режим чтения : ДостоверностьИспользование точного потока : ДаОтключение кэша аудио : ДаИспользование указателей C2 : Нет

Коррекция смещения при чтении : 48Способность читать области Lead-in и Lead-out : НетЗаполнение пропущенных сэмплов тишиной : ДаУдаление блоков с тишиной в начале и конце : НетПри вычислениях CRC использовались нулевые сэмплы : ДаИнтерфейс : Встроенный Win32-интерфейс для Win NT/2000

Выходной формат : Внутренние WAV-операцииФормат сэмплов : 44.100 Гц; 16 бит; стерео

TOC извлечённого CD

Трек | Старт | Длительность | Начальный сектор | Конечный сектор --------------------------------------------------------------------- 1 | 0:00.00 | 7:52.30 | 0 | 35429 2 | 7:52.30 | 6:51.07 | 35430 | 66261 3 | 14:43.37 | 5:29.09 | 66262 | 90945 4 | 20:12.46 | 6:56.66 | 90946 | 122211 5 | 27:09.37 | 7:18.27 | 122212 | 155088 6 | 34:27.64 | 7:38.01 | 155089 | 189439 7 | 42:05.65 | 6:33.21 | 189440 | 218935 8 | 48:39.11 | 5:44.08 | 218936 | 244743 9 | 54:23.19 | 5:24.67 | 244744 | 269110 10 | 59:48.11 | 6:16.12 | 269111 | 297322

Характеристики диапазона извлечения и сообщения об ошибках

Выбранный диапазон

Имя файла E:\РАЗДАЧИ\Warren Haynes - Man In Motion\Warren Haynes - Man In Motion.wav

Пиковый уровень 99.8 % Качество диапазона 99.9 % CRC теста D7BD2585 CRC копии D7BD2585 Копирование... OK

Ошибок не произошло

AccurateRip: сводка

Трек 1 нет в базе данныхТрек 2 нет в базе данныхТрек 3 нет в базе данныхТрек 4 нет в базе данныхТрек 5 нет в базе данныхТрек 6 нет в базе данныхТрек 7 нет в базе данныхТрек 8 нет в базе данныхТрек 9 нет в базе данныхТрек 10 нет в базе данных

Ни одного трека нет в базе AccurateRip

Конец отчёта


Трекер:  [ 04-Мар-2012 08:08 ]

  

Скачать .torrent

Размер .torrent файла 17 KB


Размер: 408 MB
Хэш (hash) релиза: 87467db464382ee5ca75e6564ede9ba4a1f320ef

Еще никто не оставлял запись к записи скачать торрент Warren Haynes - Man In Motion - 2011, APE . Будь первым!

!Обратная связь