Скачать через торрент музыку King King featuring Alan Nimmo - Take My Hand - 2011, APE бесплатно без регистрации torrent

Если у вас наблюдаются проблемы со скриншотами, переходом по ссылками, скачиванием торрентов - проблемы в блокировщике рекламы AdBlock. #хорошегоДня!


Статистика раздачи
Размер:  410 MB   |    Зарегистрирован:  5 лет 7 месяцев   |    .torrent скачан:  54 раза   |   
Раздают:  1  
   
Загрузка...
 
Автор Сообщение

Umakiro

avatar Umakiro


King King featuring Alan Nimmo - Take My Hand

Жанр: Blues-Rock
Год издания диска: 2011
Аудиокодек: APE (*.ape)
Тип рипа: image+.cue
Битрейт аудио: lossless
Продолжительность: 55:35
Источник (релизер): CD
Наличие сканов в содержимом раздачи: да
Треклист:
01. Lose Control [0:04:15.38]
02. Take My Hand [0:03:49.06]
03. Don't You Get The Feeling (You've Been Had) - V2Eq [0:03:08.53]
04. Feels Like Rain [0:06:27.57]
05. Heart Without A Soul [0:05:15.21]
06. All Your Life [0:04:45.04]
07. I'll Fight My Way [0:04:47.56]
08. Old Love [0:09:51.05]
09. Broken Heal [0:03:48.18]
10. Mr Highway Man [0:04:35.85]
11. Nothing Takes The Place Of You [0:04:51.53]
  
Exact Audio Copy V0.99 prebeta 4 from 23. January 2008

Отчёт EAC об извлечении, выполненном 30. мая 2011, 23:58

King King featuring Alan Nimmo / Take My Hand

Дисковод: Optiarc DVD RW AD-7173A Adapter: 0 ID: 1

Режим чтения : ДостоверностьИспользование точного потока : ДаОтключение кэша аудио : ДаИспользование указателей C2 : Нет

Коррекция смещения при чтении : 48Способность читать области Lead-in и Lead-out : НетЗаполнение пропущенных сэмплов тишиной : ДаУдаление блоков с тишиной в начале и конце : НетПри вычислениях CRC использовались нулевые сэмплы : ДаИнтерфейс : Встроенный Win32-интерфейс для Win NT/2000

Выходной формат : Внутренние WAV-операцииФормат сэмплов : 44.100 Гц; 16 бит; стерео

TOC извлечённого CD

Трек | Старт | Длительность | Начальный сектор | Конечный сектор --------------------------------------------------------------------- 1 | 0:00.00 | 4:15.29 | 0 | 19153 2 | 4:15.29 | 3:49.05 | 19154 | 36333 3 | 8:04.34 | 3:08.40 | 36334 | 50473 4 | 11:12.74 | 6:27.43 | 50474 | 79541 5 | 17:40.42 | 5:15.16 | 79542 | 103182 6 | 22:55.58 | 4:45.03 | 103183 | 124560 7 | 27:40.61 | 4:47.42 | 124561 | 146127 8 | 32:28.28 | 9:51.04 | 146128 | 190456 9 | 42:19.32 | 3:48.14 | 190457 | 207570 10 | 46:07.46 | 4:35.64 | 207571 | 228259 11 | 50:43.35 | 4:51.40 | 228260 | 250124

Характеристики диапазона извлечения и сообщения об ошибках

Выбранный диапазон

Имя файла D:\КОЛЛЕКЦИЯ 11\Новая папка (5)\King King featuring Alan Nimmo - Take My Hand.wav

Пиковый уровень 99.6 % Качество диапазона 99.9 % CRC теста 271BFB6D CRC копии 271BFB6D Копирование... OK

Ошибок не произошло

AccurateRip: сводка

Трек 1 точность не определена (достоверность 1) [F1968128], AccurateRip вернул [E2E6606B]Трек 2 точность не определена (достоверность 1) [B387A95E], AccurateRip вернул [CF29FC77]Трек 3 точность не определена (достоверность 1) [9832CAF7], AccurateRip вернул [F47FD7BB]Трек 4 точность не определена (достоверность 1) [B286792E], AccurateRip вернул [774DF974]Трек 5 точность не определена (достоверность 1) [E34D2E04], AccurateRip вернул [25843EF4]Трек 6 точность не определена (достоверность 1) [06C2C346], AccurateRip вернул [8A251438]Трек 7 точность не определена (достоверность 1) [29E28078], AccurateRip вернул [9B3E3789]Трек 8 точность не определена (достоверность 1) [65B3A57F], AccurateRip вернул [99D60914]Трек 9 точность не определена (достоверность 1) [FBAA3DAE], AccurateRip вернул [7955D7A3]Трек 10 точность не определена (достоверность 1) [75273337], AccurateRip вернул [C5E461D8]Трек 11 точность не определена (достоверность 1) [8A6D8B1A], AccurateRip вернул [C6D36668]

Ни один трек не прошёл проверки на точностьВ вашей базе может быть иной вариант штамповки диска

Конец отчёта


Трекер:  [ 04-Мар-2012 08:08 ]

  

Скачать .torrent

Размер .torrent файла 17 KB


Размер: 410 MB
Хэш (hash) релиза: 5caecb1bc0d5927f9c78af6683e800668e62047b

Еще никто не оставлял запись к записи скачать торрент King King featuring Alan Nimmo - Take My Hand - 2011, APE . Будь первым!

!Обратная связь