Скачать через торрент музыку John-Alex Mason - Jook Joint Thunderclap - 2011, APE бесплатно без регистрации torrent

Если у вас наблюдаются проблемы со скриншотами, переходом по ссылками, скачиванием торрентов - проблемы в блокировщике рекламы AdBlock. #хорошегоДня!


Статистика раздачи
Размер:  262 MB   |    Зарегистрирован:  5 лет 7 месяцев   |    .torrent скачан:  50 раз   |   
Раздают:  1  
   
Загрузка...
 
Автор Сообщение

Umakiro

avatar Umakiro


John-Alex Mason - Jook Joint Thunderclap

Жанр: Blues-Rock
Год издания диска: 2011
Аудиокодек: APE (*.ape)
Тип рипа: image+.cue
Битрейт аудио: lossless
Продолжительность: 42:27
Источник (релизер): CD
Наличие сканов в содержимом раздачи: да
Треклист:
01. My Old Lonesome Home [0:03:27.45]
02. Gone So Long (feat. Cody Burnside) [0:03:32.60]
03. More Than Wind [0:03:51.93]
04. Riding On (feat. Cody Burnside) [0:04:58.97]
05. Rolled and Tumbled [0:05:13.68]
06. Diamond Rain [0:04:15.24]
07. Signifying Monkey [0:04:54.62]
08. Free [0:04:07.24]
09. Write Me A Few Of Your Lines [0:04:24.62]
10. Whisper [0:03:40.13]
  
Exact Audio Copy V0.99 prebeta 4 from 23. January 2008

Отчёт EAC об извлечении, выполненном 23. мая 2011, 12:15

John-Alex Mason / Jook Joint Thunderclap

Дисковод: Optiarc DVD RW AD-7173A Adapter: 0 ID: 1

Режим чтения : ДостоверностьИспользование точного потока : ДаОтключение кэша аудио : ДаИспользование указателей C2 : Нет

Коррекция смещения при чтении : 48Способность читать области Lead-in и Lead-out : НетЗаполнение пропущенных сэмплов тишиной : ДаУдаление блоков с тишиной в начале и конце : НетПри вычислениях CRC использовались нулевые сэмплы : ДаИнтерфейс : Встроенный Win32-интерфейс для Win NT/2000

Выходной формат : Внутренние WAV-операцииФормат сэмплов : 44.100 Гц; 16 бит; стерео

TOC извлечённого CD

Трек | Старт | Длительность | Начальный сектор | Конечный сектор --------------------------------------------------------------------- 1 | 0:00.00 | 3:27.34 | 0 | 15558 2 | 3:27.34 | 3:32.45 | 15559 | 31503 3 | 7:00.04 | 3:51.70 | 31504 | 48898 4 | 10:51.74 | 4:58.73 | 48899 | 71321 5 | 15:50.72 | 5:13.51 | 71322 | 94847 6 | 21:04.48 | 4:15.18 | 94848 | 113990 7 | 25:19.66 | 4:54.47 | 113991 | 136087 8 | 30:14.38 | 4:07.18 | 136088 | 154630 9 | 34:21.56 | 4:24.47 | 154631 | 174477 10 | 38:46.28 | 3:40.10 | 174478 | 190987

Характеристики диапазона извлечения и сообщения об ошибках

Выбранный диапазон

Имя файла D:\КОЛЛЕКЦИЯ 11\Новая папка\John-Alex Mason - Jook Joint Thunderclap.wav

Пиковый уровень 100.0 % Качество диапазона 100.0 % CRC теста 72B7D101 CRC копии 72B7D101 Копирование... OK

Ошибок не произошло

AccurateRip: сводка

Трек 1 нет в базе данныхТрек 2 нет в базе данныхТрек 3 нет в базе данныхТрек 4 нет в базе данныхТрек 5 нет в базе данныхТрек 6 нет в базе данныхТрек 7 нет в базе данныхТрек 8 нет в базе данныхТрек 9 нет в базе данныхТрек 10 нет в базе данных

Ни одного трека нет в базе AccurateRip

Конец отчёта


Трекер:  [ 04-Мар-2012 08:07 ]

  

Скачать .torrent

Размер .torrent файла 11 KB


Размер: 262 MB
Хэш (hash) релиза: bcdd0dc3b9a59a004ae03777a84e579540656a75

Еще никто не оставлял запись к записи скачать торрент John-Alex Mason - Jook Joint Thunderclap - 2011, APE . Будь первым!

!Обратная связь