Скачать через торрент музыку The Steepwater Band - Brother to the Snake - 2001, APE бесплатно без регистрации torrent

Если у вас наблюдаются проблемы со скриншотами, переходом по ссылками, скачиванием торрентов - проблемы в блокировщике рекламы AdBlock. #хорошегоДня!


Статистика раздачи
Размер:  378 MB   |    Зарегистрирован:  5 лет 7 месяцев   |    .torrent скачан:  47 раз   |   
Раздают:  1  
   
Загрузка...
 
Автор Сообщение

Umakiro

avatar Umakiro


The Steepwater Band - Brother to the Snake

Жанр: Blues Rock-Southern Rock
Год издания диска: 2001
Аудиокодек: APE (*.ape)
Тип рипа: image+.cue
Битрейт аудио: lossless
Продолжительность: 57:47
Источник (релизер): CD
Наличие сканов в содержимом раздачи: да
Треклист:
01. Back to the Bottle [0:03:46.54]
02. Feelin' in the Air [0:04:13.44]
03. Ain't Gonna Waste the Day Cryin' [0:04:23.84]
04. Leo's Grass [0:02:21.46]
05. Hard as Stone [0:05:22.54]
06. Dirty Ol' Blues [0:07:16.28]
07. Goin' Back Home [0:04:17.62]
08. Rain [0:05:30.53]
09. Down in Chicago [0:05:48.30]
10. No Good For Me [0:02:56.24]
11. Preachin' Blues [0:04:23.22]
12. Addicted [0:04:47.24]
13. Morning Star [0:02:40.01]
  
Exact Audio Copy V0.99 prebeta 4 from 23. January 2008

Отчёт EAC об извлечении, выполненном 17. сентября 2010, 3:46

The Steepwater Band / Brother to the Snake

Дисковод: PLEXTOR DVDR PX-820A Adapter: 3 ID: 1

Режим чтения : ДостоверностьИспользование точного потока : ДаОтключение кэша аудио : ДаИспользование указателей C2 : Нет

Коррекция смещения при чтении : 48Способность читать области Lead-in и Lead-out : НетЗаполнение пропущенных сэмплов тишиной : ДаУдаление блоков с тишиной в начале и конце : НетПри вычислениях CRC использовались нулевые сэмплы : ДаИнтерфейс : Встроенный Win32-интерфейс для Win NT/2000

Выходной формат : Внутренние WAV-операцииФормат сэмплов : 44.100 Гц; 16 бит; стерео

TOC извлечённого CD

Трек | Старт | Длительность | Начальный сектор | Конечный сектор --------------------------------------------------------------------- 1 | 0:00.00 | 3:46.41 | 0 | 16990 2 | 3:46.41 | 4:13.33 | 16991 | 35998 3 | 7:59.74 | 4:23.63 | 35999 | 55786 4 | 12:23.62 | 2:21.35 | 55787 | 66396 5 | 14:45.22 | 5:22.41 | 66397 | 90587 6 | 20:07.63 | 7:16.21 | 90588 | 123308 7 | 27:24.09 | 4:17.47 | 123309 | 142630 8 | 31:41.56 | 5:30.40 | 142631 | 167420 9 | 37:12.21 | 5:48.23 | 167421 | 193543 10 | 43:00.44 | 2:56.18 | 193544 | 206761 11 | 45:56.62 | 4:23.17 | 206762 | 226503 12 | 50:20.04 | 4:47.18 | 226504 | 248046 13 | 55:07.22 | 2:40.01 | 248047 | 260047

Характеристики диапазона извлечения и сообщения об ошибках

Выбранный диапазон

Имя файла D:\КОЛЛЕКЦИЯ 7\THE STEEPWATER BAND\The Steepwater Band - Brother to the Snake.wav

Пиковый уровень 98.8 % Качество диапазона 100.0 % CRC копии 951E6D8E Копирование... OK

Ошибок не произошло

AccurateRip: сводка

Трек 1 нет в базе данныхТрек 2 нет в базе данныхТрек 3 нет в базе данныхТрек 4 нет в базе данныхТрек 5 нет в базе данныхТрек 6 нет в базе данныхТрек 7 нет в базе данныхТрек 8 нет в базе данныхТрек 9 нет в базе данныхТрек 10 нет в базе данныхТрек 11 нет в базе данныхТрек 12 нет в базе данныхТрек 13 нет в базе данных

Ни одного трека нет в базе AccurateRip

Конец отчёта


Трекер:  [ 04-Мар-2012 08:07 ]

  

Скачать .torrent

Размер .torrent файла 16 KB


Размер: 378 MB
Хэш (hash) релиза: dbef2c198b666779f720e2f0b729d1e5ba5f4788

Еще никто не оставлял запись к записи скачать торрент The Steepwater Band - Brother to the Snake - 2001, APE . Будь первым!

!Обратная связь