Скачать через торрент музыку Jeff Naideau - Heaven on a Half Shell - 2001, APE бесплатно без регистрации torrent

Если у вас наблюдаются проблемы со скриншотами, переходом по ссылками, скачиванием торрентов - проблемы в блокировщике рекламы AdBlock. #хорошегоДня!


Статистика раздачи
Размер:  321 MB   |    Зарегистрирован:  5 лет 7 месяцев   |    .torrent скачан:  33 раза   |   
Раздают:  1  
   
Загрузка...
 
Автор Сообщение

Umakiro

avatar Umakiro


Jeff Naideau - Heaven on a Half Shell

Жанр: Blues
Год издания диска: 2001
Аудиокодек: APE (*.ape)
Тип рипа: image+.cue
Битрейт аудио: lossless
Продолжительность: 50:12
Источник (релизер): CD
Наличие сканов в содержимом раздачи: да
Треклист:
01. Heaven on a Half Shell [0:03:46.96]
02. Louisiana Spice [0:03:18.77]
03. Honey [0:05:25.93]
04. Come Together [0:04:26.76]
05. You Got Me [0:03:43.24]
06. Lay Your Burden Down [0:03:48.42]
07. Lonely Louisiana Blues [0:05:21.13]
08. Gonna' Die Tryin' [0:07:01.20]
09. Shine [0:04:19.66]
10. Runaround Blues [0:03:50.60]
11. Louisiana 1927 [0:05:09.10]
  
Exact Audio Copy V0.99 prebeta 4 from 23. January 2008

Отчёт EAC об извлечении, выполненном 7. апреля 2011, 23:46

Jeff Naideau / Heaven on a Half Shell

Дисковод: Optiarc DVD RW AD-7173A Adapter: 0 ID: 1

Режим чтения : ДостоверностьИспользование точного потока : ДаОтключение кэша аудио : ДаИспользование указателей C2 : Нет

Коррекция смещения при чтении : 48Способность читать области Lead-in и Lead-out : НетЗаполнение пропущенных сэмплов тишиной : ДаУдаление блоков с тишиной в начале и конце : НетПри вычислениях CRC использовались нулевые сэмплы : ДаИнтерфейс : Встроенный Win32-интерфейс для Win NT/2000

Выходной формат : Внутренние WAV-операцииФормат сэмплов : 44.100 Гц; 16 бит; стерео

TOC извлечённого CD

Трек | Старт | Длительность | Начальный сектор | Конечный сектор --------------------------------------------------------------------- 1 | 0:00.00 | 3:46.72 | 0 | 17021 2 | 3:46.72 | 3:18.58 | 17022 | 31929 3 | 7:05.55 | 5:25.70 | 31930 | 56374 4 | 12:31.50 | 4:26.57 | 56375 | 76381 5 | 16:58.32 | 3:43.18 | 76382 | 93124 6 | 20:41.50 | 3:48.32 | 93125 | 110256 7 | 24:30.07 | 5:21.10 | 110257 | 134341 8 | 29:51.17 | 7:01.15 | 134342 | 165931 9 | 36:52.32 | 4:19.50 | 165932 | 185406 10 | 41:12.07 | 3:50.45 | 185407 | 202701 11 | 45:02.52 | 5:09.08 | 202702 | 225884

Характеристики диапазона извлечения и сообщения об ошибках

Выбранный диапазон

Имя файла D:\КОЛЛЕКЦИЯ 11\Новая папка (9)\Jeff Naideau - Heaven on a Half Shell.wav

Пиковый уровень 99.5 % Качество диапазона 100.0 % CRC теста 3C616077 CRC копии 3C616077 Копирование... OK

Ошибок не произошло

AccurateRip: сводка

Трек 1 нет в базе данныхТрек 2 нет в базе данныхТрек 3 нет в базе данныхТрек 4 нет в базе данныхТрек 5 нет в базе данныхТрек 6 нет в базе данныхТрек 7 нет в базе данныхТрек 8 нет в базе данныхТрек 9 нет в базе данныхТрек 10 нет в базе данныхТрек 11 нет в базе данных

Ни одного трека нет в базе AccurateRip

Конец отчёта


Трекер:  [ 04-Мар-2012 08:07 ]

  

Скачать .torrent

Размер .torrent файла 13 KB


Размер: 321 MB
Хэш (hash) релиза: d376d44406606ec17718adfdeaa8a03c96554552

Еще никто не оставлял запись к записи скачать торрент Jeff Naideau - Heaven on a Half Shell - 2001, APE . Будь первым!

!Обратная связь