Скачать через торрент музыку The Savoy Truffle - Roadhouse Boogie - 2004, APE бесплатно без регистрации torrent

Если у вас наблюдаются проблемы со скриншотами, переходом по ссылками, скачиванием торрентов - проблемы в блокировщике рекламы AdBlock. #хорошегоДня!


Статистика раздачи
Размер:  357 MB   |    Зарегистрирован:  5 лет 7 месяцев   |    .torrent скачан:  51 раз   |   
Раздают:  1  
   
Загрузка...
 
Автор Сообщение

Umakiro

avatar Umakiro


The Savoy Truffle - Roadhouse Boogie

Жанр: Blues-Rock Southern Rock.
Год издания диска: 2004
Аудиокодек: APE (*.ape)
Тип рипа: image+.cue
Битрейт аудио: lossless
Продолжительность: 53:44
Источник (релизер): CD
Наличие сканов в содержимом раздачи: да
Треклист:
01. Out In The Rain [0:05:39.41]
02. Lowdown Blues [0:04:45.93]
03. Until You Can Feel It [0:08:20.74]
04. Chevrolet [0:05:22.16]
05. Don't Beat Around The Bush [0:07:11.81]
06. To Real To Feel [0:06:44.42]
07. I'll Never Know [0:05:51.69]
08. Bring You Down [0:03:32.53]
09. Give It One Good Try [0:06:15.32]
  
Exact Audio Copy V0.99 prebeta 4 from 23. January 2008

Отчёт EAC об извлечении, выполненном 17. сентября 2010, 1:25

The Savoy Truffle / Roadhouse Boogie

Дисковод: PLEXTOR DVDR PX-820A Adapter: 3 ID: 1

Режим чтения : ДостоверностьИспользование точного потока : ДаОтключение кэша аудио : ДаИспользование указателей C2 : Нет

Коррекция смещения при чтении : 48Способность читать области Lead-in и Lead-out : НетЗаполнение пропущенных сэмплов тишиной : ДаУдаление блоков с тишиной в начале и конце : НетПри вычислениях CRC использовались нулевые сэмплы : ДаИнтерфейс : Встроенный Win32-интерфейс для Win NT/2000

Выходной формат : Внутренние WAV-операцииФормат сэмплов : 44.100 Гц; 16 бит; стерео

TOC извлечённого CD

Трек | Старт | Длительность | Начальный сектор | Конечный сектор --------------------------------------------------------------------- 1 | 0:00.00 | 5:39.31 | 0 | 25455 2 | 5:39.31 | 4:45.70 | 25456 | 46900 3 | 10:25.26 | 8:20.56 | 46901 | 84456 4 | 18:46.07 | 5:22.12 | 84457 | 108618 5 | 24:08.19 | 7:11.61 | 108619 | 141004 6 | 31:20.05 | 6:44.32 | 141005 | 171336 7 | 38:04.37 | 5:51.52 | 171337 | 197713 8 | 43:56.14 | 3:32.40 | 197714 | 213653 9 | 47:28.54 | 6:15.24 | 213654 | 241802

Характеристики диапазона извлечения и сообщения об ошибках

Выбранный диапазон

Имя файла D:\КОЛЛЕКЦИЯ 7\THE SAVOY TRUFFLE\The Savoy Truffle - Roadhouse Boogie.wav

Пиковый уровень 100.0 % Качество диапазона 100.0 % CRC копии 5F854D27 Копирование... OK

Ошибок не произошло

AccurateRip: сводка

Трек 1 нет в базе данныхТрек 2 нет в базе данныхТрек 3 нет в базе данныхТрек 4 нет в базе данныхТрек 5 нет в базе данныхТрек 6 нет в базе данныхТрек 7 нет в базе данныхТрек 8 нет в базе данныхТрек 9 нет в базе данных

Ни одного трека нет в базе AccurateRip

Конец отчёта


Трекер:  [ 04-Мар-2012 08:06 ]

  

Скачать .torrent

Размер .torrent файла 15 KB


Размер: 357 MB
Хэш (hash) релиза: 04a5716eddb5c91191553fffa3c3f7b119246996

Еще никто не оставлял запись к записи скачать торрент The Savoy Truffle - Roadhouse Boogie - 2004, APE . Будь первым!

!Обратная связь