Скачать через торрент музыку Nellie "Tiger" Travis - Im Going Out Tonight - 2011, APE бесплатно без регистрации torrent

Если у вас наблюдаются проблемы со скриншотами, переходом по ссылками, скачиванием торрентов - проблемы в блокировщике рекламы AdBlock. #хорошегоДня!


Статистика раздачи
Размер:  303 MB   |    Зарегистрирован:  5 лет 7 месяцев   |    .torrent скачан:  41 раз   |   
Раздают:  1  
   
Загрузка...
 
Автор Сообщение

Umakiro

avatar Umakiro


Nellie "Tiger" Travis - I'm Going Out Tonight

Жанр: Modern Electric Blues
Год издания диска: 2011
Аудиокодек: APE (*.ape)
Тип рипа: image+.cue
Битрейт аудио: lossless
Продолжительность: 47:09
Источник (релизер): CD
Наличие сканов в содержимом раздачи: да
Треклист:
01. Why You Lie Like That [0:04:04.26]
02. Before You Grab This Tiger By the Tail [0:03:02.06]
03. Ain't Gonna Raise No Grown Ass Man [0:05:11.04]
04. I'm Going Out Tonight [0:04:59.32]
05. Tornado Wrapped In Fire [0:05:11.20]
06. You Must Be Lovin' Someone Else [0:04:02.52]
07. I Cry the Blues [0:06:00.40]
08. Born In Mississippi [0:04:55.22]
09. Koko [0:03:16.16]
10. There's A Queen In Me [0:06:27.18]
  
Exact Audio Copy V0.99 prebeta 4 from 23. January 2008

Отчёт EAC об извлечении, выполненном 26. июня 2011, 13:36

Nellie "Tiger" Travis / I'm Going Out Tonight

Дисковод: Optiarc DVD RW AD-7173A Adapter: 0 ID: 1

Режим чтения : ДостоверностьИспользование точного потока : ДаОтключение кэша аудио : ДаИспользование указателей C2 : Нет

Коррекция смещения при чтении : 48Способность читать области Lead-in и Lead-out : НетЗаполнение пропущенных сэмплов тишиной : ДаУдаление блоков с тишиной в начале и конце : НетПри вычислениях CRC использовались нулевые сэмплы : ДаИнтерфейс : Встроенный Win32-интерфейс для Win NT/2000

Выходной формат : Внутренние WAV-операцииФормат сэмплов : 44.100 Гц; 16 бит; стерео

TOC извлечённого CD

Трек | Старт | Длительность | Начальный сектор | Конечный сектор --------------------------------------------------------------------- 1 | 0:00.00 | 4:04.20 | 0 | 18319 2 | 4:04.20 | 3:02.05 | 18320 | 31974 3 | 7:06.25 | 5:11.03 | 31975 | 55302 4 | 12:17.28 | 4:59.24 | 55303 | 77751 5 | 17:16.52 | 5:11.15 | 77752 | 101091 6 | 22:27.67 | 4:02.39 | 101092 | 119280 7 | 26:30.31 | 6:00.30 | 119281 | 146310 8 | 32:30.61 | 4:55.17 | 146311 | 168452 9 | 37:26.03 | 3:16.12 | 168453 | 183164 10 | 40:42.15 | 6:27.14 | 183165 | 212203

Характеристики диапазона извлечения и сообщения об ошибках

Выбранный диапазон

Имя файла D:\КОЛЛЕКЦИЯ 11\Новая папка (10)\Nellie Tiger Travis - I'm Going Out Tonight.wav

Пиковый уровень 100.0 % Качество диапазона 99.9 % CRC теста C41A5DBD CRC копии C41A5DBD Копирование... OK

Ошибок не произошло

AccurateRip: сводка

Трек 1 нет в базе данныхТрек 2 нет в базе данныхТрек 3 нет в базе данныхТрек 4 нет в базе данныхТрек 5 нет в базе данныхТрек 6 нет в базе данныхТрек 7 нет в базе данныхТрек 8 нет в базе данныхТрек 9 нет в базе данныхТрек 10 нет в базе данных

Ни одного трека нет в базе AccurateRip

Конец отчёта


Трекер:  [ 04-Мар-2012 08:05 ]

  

Скачать .torrent

Размер .torrent файла 13 KB


Размер: 303 MB
Хэш (hash) релиза: 413628d556ddfa72e378465f60892afdbcdd73dc

Еще никто не оставлял запись к записи скачать торрент Nellie "Tiger" Travis - Im Going Out Tonight - 2011, APE . Будь первым!

!Обратная связь