Скачать через торрент музыку Michael Powers - Revolutionary Boogie - 2011, APE бесплатно без регистрации torrent

Если у вас наблюдаются проблемы со скриншотами, переходом по ссылками, скачиванием торрентов - проблемы в блокировщике рекламы AdBlock. #хорошегоДня!


Статистика раздачи
Размер:  438 MB   |    Зарегистрирован:  5 лет 7 месяцев   |    .torrent скачан:  38 раз   |   
Раздают:  1  
   
Загрузка...
 
Автор Сообщение

Umakiro

avatar Umakiro


Michael Powers - Revolutionary Boogie

Жанр: Blues
Год издания диска: 2011
Аудиокодек: APE (*.ape)
Тип рипа: image+.cue
Битрейт аудио: lossless
Продолжительность: 1:05:22
Источник (релизер): СD
Наличие сканов в содержимом раздачи: да
Треклист:
01. I Miss Your Kissin' [0:04:19.06]
02. Bleeker Street Strut [0:05:12.90]
03. Power of Midnight Lightnin' [0:04:36.78]
04. Got's To Go [0:04:46.62]
05. Spanish Castle Magic [0:05:06.25]
06. Shake Your Moneymaker [0:05:10.49]
07. It's About That Time [0:03:49.68]
08. I Ain't Superstitious [0:05:01.33]
09. Lookin' For the Truth [0:04:22.86]
10. Uprising [0:06:03.45]
11. Honeybee [0:05:42.58]
12. Revolutionary Boogie [0:06:26.94]
13. Gotta Go Right Now [0:04:42.96]
  
Exact Audio Copy V0.99 prebeta 4 from 23. January 2008

Отчёт EAC об извлечении, выполненном 3. июля 2011, 10:24

Michael Powers / Revolutionary Boogie

Дисковод: Optiarc DVD RW AD-7173A Adapter: 0 ID: 1

Режим чтения : ДостоверностьИспользование точного потока : ДаОтключение кэша аудио : ДаИспользование указателей C2 : Нет

Коррекция смещения при чтении : 48Способность читать области Lead-in и Lead-out : НетЗаполнение пропущенных сэмплов тишиной : ДаУдаление блоков с тишиной в начале и конце : НетПри вычислениях CRC использовались нулевые сэмплы : ДаИнтерфейс : Встроенный Win32-интерфейс для Win NT/2000

Выходной формат : Внутренние WAV-операцииФормат сэмплов : 44.100 Гц; 16 бит; стерео

TOC извлечённого CD

Трек | Старт | Длительность | Начальный сектор | Конечный сектор --------------------------------------------------------------------- 1 | 0:00.00 | 4:19.05 | 0 | 19429 2 | 4:19.05 | 5:12.68 | 19430 | 42897 3 | 9:31.73 | 4:36.59 | 42898 | 63656 4 | 14:08.57 | 4:46.47 | 63657 | 85153 5 | 18:55.29 | 5:06.19 | 85154 | 108122 6 | 24:01.48 | 5:10.37 | 108123 | 131409 7 | 29:12.10 | 3:49.51 | 131410 | 148635 8 | 33:01.61 | 5:01.25 | 148636 | 171235 9 | 38:03.11 | 4:22.65 | 171236 | 190950 10 | 42:26.01 | 6:03.34 | 190951 | 218209 11 | 48:29.35 | 5:42.44 | 218210 | 243903 12 | 54:12.04 | 6:26.71 | 243904 | 272924 13 | 60:39.00 | 4:42.72 | 272925 | 294146

Характеристики диапазона извлечения и сообщения об ошибках

Выбранный диапазон

Имя файла E:\РАЗДАЧИ\Michael Powers - Revolutionary Boogie\Michael Powers - Revolutionary Boogie.wav

Пиковый уровень 97.7 % Качество диапазона 100.0 % CRC теста 29F634A1 CRC копии 29F634A1 Копирование... OK

Ошибок не произошло

AccurateRip: сводка

Трек 1 нет в базе данныхТрек 2 нет в базе данныхТрек 3 нет в базе данныхТрек 4 нет в базе данныхТрек 5 нет в базе данныхТрек 6 нет в базе данныхТрек 7 нет в базе данныхТрек 8 нет в базе данныхТрек 9 нет в базе данныхТрек 10 нет в базе данныхТрек 11 нет в базе данныхТрек 12 нет в базе данныхТрек 13 нет в базе данных

Ни одного трека нет в базе AccurateRip

Конец отчёта


Трекер:  [ 04-Мар-2012 08:05 ]

  

Скачать .torrent

Размер .torrent файла 18 KB


Размер: 438 MB
Хэш (hash) релиза: 0ebb8d453a9e62b18d8bd90836f6772c8d6cea2d

Еще никто не оставлял запись к записи скачать торрент Michael Powers - Revolutionary Boogie - 2011, APE . Будь первым!

!Обратная связь