Скачать через торрент музыку Levon Helm - Ramble at the Ryman - 2011, APE бесплатно без регистрации torrent

Если у вас наблюдаются проблемы со скриншотами, переходом по ссылками, скачиванием торрентов - проблемы в блокировщике рекламы AdBlock. #хорошегоДня!


Статистика раздачи
Размер:  500 MB   |    Зарегистрирован:  5 лет 7 месяцев   |    .torrent скачан:  29 раз   |   
Раздают:  1  
   
Загрузка...
 
Автор Сообщение

Umakiro

avatar Umakiro


Levon Helm - Ramble at the Ryman

Жанр: Blues
Год издания диска: 2011
Аудиокодек: APE (*.ape)
Тип рипа: image+.cue
Битрейт аудио: lossless
Продолжительность: 1:10:54
Источник (релизер): CD
Наличие сканов в содержимом раздачи: да
Треклист:
1. Ophelia [0:03:58.21]
02. Back To Memphis [0:04:54.29]
03. Fannie Mae [0:03:32.88]
04. Baby Scratch My Back [0:04:13.18]
05. Evangeline [0:03:30.69]
06. No Depression In Heaven [0:04:01.38]
07. Wide River To Cross [0:04:43.49]
08. Deep Elem Blues [0:07:11.82]
09. Anna Lee [0:04:01.61]
10. Rag Mama Rag [0:04:21.29]
11. Time Out For The Blues [0:02:43.50]
12. A Train Robbery [0:05:41.22]
13. The Shape I'm In [0:04:43.21]
14. Chest Fever [0:07:03.28]
15. The Weight [0:06:13.48]
  
Exact Audio Copy V0.99 prebeta 4 from 23. January 2008

Отчёт EAC об извлечении, выполненном 26. июня 2011, 12:30

Levon Helm / Ramble at the Ryman

Дисковод: Optiarc DVD RW AD-7173A Adapter: 0 ID: 1

Режим чтения : ДостоверностьИспользование точного потока : ДаОтключение кэша аудио : ДаИспользование указателей C2 : Нет

Коррекция смещения при чтении : 48Способность читать области Lead-in и Lead-out : НетЗаполнение пропущенных сэмплов тишиной : ДаУдаление блоков с тишиной в начале и конце : НетПри вычислениях CRC использовались нулевые сэмплы : ДаИнтерфейс : Встроенный Win32-интерфейс для Win NT/2000

Выходной формат : Внутренние WAV-операцииФормат сэмплов : 44.100 Гц; 16 бит; стерео

TOC извлечённого CD

Трек | Старт | Длительность | Начальный сектор | Конечный сектор --------------------------------------------------------------------- 1 | 0:00.00 | 3:58.16 | 0 | 17865 2 | 3:58.16 | 4:54.22 | 17866 | 39937 3 | 8:52.38 | 3:32.66 | 39938 | 55903 4 | 12:25.29 | 4:13.14 | 55904 | 74892 5 | 16:38.43 | 3:30.52 | 74893 | 90694 6 | 20:09.20 | 4:01.29 | 90695 | 108798 7 | 24:10.49 | 4:43.37 | 108799 | 130060 8 | 28:54.11 | 7:11.62 | 130061 | 162447 9 | 36:05.73 | 4:01.46 | 162448 | 180568 10 | 40:07.44 | 4:21.22 | 180569 | 200165 11 | 44:28.66 | 2:43.38 | 200166 | 212428 12 | 47:12.29 | 5:41.17 | 212429 | 238020 13 | 52:53.46 | 4:43.16 | 238021 | 259261 14 | 57:36.62 | 7:03.21 | 259262 | 291007 15 | 64:40.08 | 6:13.36 | 291008 | 319018

Характеристики диапазона извлечения и сообщения об ошибках

Выбранный диапазон

Имя файла D:\КОЛЛЕКЦИЯ 11\Новая папка (8)\Levon Helm - Ramble at the Ryman.wav

Пиковый уровень 99.5 % Качество диапазона 100.0 % CRC теста 3F9C38CC CRC копии 3F9C38CC Копирование... OK

Ошибок не произошло

AccurateRip: сводка

Трек 1 точность не определена (достоверность 1) [C42630E0], AccurateRip вернул [8D589EE5]Трек 2 точность не определена (достоверность 1) [ACBA1A5B], AccurateRip вернул [710884F9]Трек 3 точность не определена (достоверность 1) [82FDA94C], AccurateRip вернул [04D10818]Трек 4 точность не определена (достоверность 1) [C7B38FAD], AccurateRip вернул [A77E60C4]Трек 5 точность не определена (достоверность 1) [47C2D9E9], AccurateRip вернул [D804B628]Трек 6 точность не определена (достоверность 1) [7290295B], AccurateRip вернул [8C2276B5]Трек 7 точность не определена (достоверность 1) [66667848], AccurateRip вернул [2847DF7F]Трек 8 точность не определена (достоверность 1) [1A2A5D85], AccurateRip вернул [C0BAA6FD]Трек 9 точность не определена (достоверность 1) [4978B94E], AccurateRip вернул [DC1CF9BD]Трек 10 точность не определена (достоверность 1) [0C0360E2], AccurateRip вернул [38EA5A3A]Трек 11 точность не определена (достоверность 1) [F6093CCD], AccurateRip вернул [790A91BB]Трек 12 точность не определена (достоверность 1) [7B8ED415], AccurateRip вернул [248CFAAB]Трек 13 точность не определена (достоверность 1) [20883799], AccurateRip вернул [4BCB472D]Трек 14 точность не определена (достоверность 1) [6895765B], AccurateRip вернул [9CE4497E]Трек 15 точность не определена (достоверность 1) [AB98D537], AccurateRip вернул [BB59F628]

Ни один трек не прошёл проверки на точностьВ вашей базе может быть иной вариант штамповки диска

Конец отчёта


Трекер:  [ 04-Мар-2012 08:04 ]

  

Скачать .torrent

Размер .torrent файла 20 KB


Размер: 500 MB
Хэш (hash) релиза: 511b1bb179d969e4f9e9a30d47c96f968821fde7

Еще никто не оставлял запись к записи скачать торрент Levon Helm - Ramble at the Ryman - 2011, APE . Будь первым!

!Обратная связь