Скачать через торрент музыку Stevie Cochran - the Next Stage - 2010, APE бесплатно без регистрации torrent

Если у вас наблюдаются проблемы со скриншотами, переходом по ссылками, скачиванием торрентов - проблемы в блокировщике рекламы AdBlock. #хорошегоДня!


Статистика раздачи
Размер:  346 MB   |    Зарегистрирован:  5 лет 7 месяцев   |    .torrent скачан:  42 раза   |   
Раздают:  1  
   
Загрузка...
 
Автор Сообщение

Umakiro

avatar Umakiro


Stevie Cochran - the Next Stage

Жанр: Blues/Rock
Год издания диска: 2010
Аудиокодек: APE (*.ape)
Тип рипа: image+.cue
Битрейт аудио: lossless
Продолжительность: 59:55
Источник (релизер): CD
Наличие сканов в содержимом раздачи: да
Треклист:
01. Heckle And Jeckle [0:03:42.02]
02. Next Stage [0:03:03.16]
03. Don't Need You No More [0:02:51.64]
04. Waiting With You [0:04:37.56]
05. The Bad Road [0:03:58.37]
06. Three Thursdays [0:05:32.69]
07. My Love Is Alright [0:06:05.06]
08. Between The Lines [0:05:25.26]
09. Sweet And Evil [0:02:52.56]
10. Testify [0:04:09.93]
11. Ill Get Along [0:05:38.64]
12. Hard To Say [0:04:57.30]
13. Anywhere Town [0:03:09.65]
14. Fix It Man [0:03:50.80]
  
Exact Audio Copy V0.99 prebeta 4 from 23. January 2008

Отчёт EAC об извлечении, выполненном 26. июня 2011, 11:29

Stevie Cochran / the Next Stage

Дисковод: Optiarc DVD RW AD-7173A Adapter: 0 ID: 1

Режим чтения : ДостоверностьИспользование точного потока : ДаОтключение кэша аудио : ДаИспользование указателей C2 : Нет

Коррекция смещения при чтении : 48Способность читать области Lead-in и Lead-out : НетЗаполнение пропущенных сэмплов тишиной : ДаУдаление блоков с тишиной в начале и конце : НетПри вычислениях CRC использовались нулевые сэмплы : ДаИнтерфейс : Встроенный Win32-интерфейс для Win NT/2000

Выходной формат : Внутренние WAV-операцииФормат сэмплов : 44.100 Гц; 16 бит; стерео

TOC извлечённого CD

Трек | Старт | Длительность | Начальный сектор | Конечный сектор --------------------------------------------------------------------- 1 | 0:00.00 | 3:42.02 | 0 | 16651 2 | 3:42.02 | 3:03.12 | 16652 | 30388 3 | 6:45.14 | 2:51.48 | 30389 | 43261 4 | 9:36.62 | 4:37.42 | 43262 | 64078 5 | 14:14.29 | 3:58.28 | 64079 | 81956 6 | 18:12.57 | 5:32.52 | 81957 | 106908 7 | 23:45.34 | 6:05.05 | 106909 | 134288 8 | 29:50.39 | 5:25.20 | 134289 | 158683 9 | 35:15.59 | 2:52.42 | 158684 | 171625 10 | 38:08.26 | 4:09.70 | 171626 | 190370 11 | 42:18.21 | 5:38.48 | 190371 | 215768 12 | 47:56.69 | 4:57.23 | 215769 | 238066 13 | 52:54.17 | 3:09.49 | 238067 | 252290 14 | 56:03.66 | 3:50.60 | 252291 | 269600

Характеристики диапазона извлечения и сообщения об ошибках

Выбранный диапазон

Имя файла D:\КОЛЛЕКЦИЯ 11\Новая папка (6)\Stevie Cochran - the Next Stage.wav

Пиковый уровень 100.0 % Качество диапазона 99.9 % CRC теста B3421CB2 CRC копии B3421CB2 Копирование... OK

Ошибок не произошло

AccurateRip: сводка

Трек 1 нет в базе данныхТрек 2 нет в базе данныхТрек 3 нет в базе данныхТрек 4 нет в базе данныхТрек 5 нет в базе данныхТрек 6 нет в базе данныхТрек 7 нет в базе данныхТрек 8 нет в базе данныхТрек 9 нет в базе данныхТрек 10 нет в базе данныхТрек 11 нет в базе данныхТрек 12 нет в базе данныхТрек 13 нет в базе данныхТрек 14 нет в базе данных

Ни одного трека нет в базе AccurateRip

Конец отчёта


Трекер:  [ 04-Мар-2012 08:04 ]

  

Скачать .torrent

Размер .torrent файла 14 KB


Размер: 346 MB
Хэш (hash) релиза: 7f209aaec63d449b40e3b8026d17d12100ed1b64

Еще никто не оставлял запись к записи скачать торрент Stevie Cochran - the Next Stage - 2010, APE . Будь первым!

!Обратная связь