Скачать через торрент музыку The Brew - A Million Dead Stars - 2010, APE бесплатно без регистрации torrent

Если у вас наблюдаются проблемы со скриншотами, переходом по ссылками, скачиванием торрентов - проблемы в блокировщике рекламы AdBlock. #хорошегоДня!


Статистика раздачи
Размер:  338 MB   |    Зарегистрирован:  5 лет 7 месяцев   |    .torrent скачан:  40 раз   |   
Раздают:  1  
   
Загрузка...
 
Автор Сообщение

Umakiro

avatar Umakiro


The Brew - A Million Dead Stars

Жанр: Indie Rock, Blues Rock
Год издания диска: 2010
Аудиокодек: APE (*.ape)
Тип рипа: image+.cue
Битрейт аудио: lossless
Продолжительность: 51:15
Источник (релизер): CD
Наличие сканов в содержимом раздачи: да
Треклист:
01. Every Gig Has A Neighbour [0:04:17.12]
02. Surrender It All [0:03:57.32]
03. Wrong Tunes [0:03:36.74]
04. Kam [0:08:31.68]
05. Monkey Train [0:02:14.50]
06. Just Another Night [0:05:44.86]
07. A Smile To Lift The Doubt [0:03:57.44]
08. Change In The Air [0:03:58.82]
09. Mav The Rave [0:04:25.73]
10. A Million Dead Stars - Intro [0:02:24.41]
11. A Million Dead Stars [0:08:06.34]
  
Exact Audio Copy V0.99 prebeta 4 from 23. January 2008

Отчёт EAC об извлечении, выполненном 26. июня 2011, 12:00

The Brew / A Million Dead Stars

Дисковод: Optiarc DVD RW AD-7173A Adapter: 0 ID: 1

Режим чтения : ДостоверностьИспользование точного потока : ДаОтключение кэша аудио : ДаИспользование указателей C2 : Нет

Коррекция смещения при чтении : 48Способность читать области Lead-in и Lead-out : НетЗаполнение пропущенных сэмплов тишиной : ДаУдаление блоков с тишиной в начале и конце : НетПри вычислениях CRC использовались нулевые сэмплы : ДаИнтерфейс : Встроенный Win32-интерфейс для Win NT/2000

Выходной формат : Внутренние WAV-операцииФормат сэмплов : 44.100 Гц; 16 бит; стерео

TOC извлечённого CD

Трек | Старт | Длительность | Начальный сектор | Конечный сектор --------------------------------------------------------------------- 1 | 0:00.00 | 4:17.09 | 0 | 19283 2 | 4:17.09 | 3:57.24 | 19284 | 37082 3 | 8:14.33 | 3:36.56 | 37083 | 53338 4 | 11:51.14 | 8:31.51 | 53339 | 91714 5 | 20:22.65 | 2:14.38 | 91715 | 101802 6 | 22:37.28 | 5:44.65 | 101803 | 127667 7 | 28:22.18 | 3:57.33 | 127668 | 145475 8 | 32:19.51 | 3:58.62 | 145476 | 163387 9 | 36:18.38 | 4:25.55 | 163388 | 183317 10 | 40:44.18 | 2:24.31 | 183318 | 194148 11 | 43:08.49 | 8:06.26 | 194149 | 230624

Характеристики диапазона извлечения и сообщения об ошибках

Выбранный диапазон

Имя файла D:\КОЛЛЕКЦИЯ 11\Новая папка (7)\The Brew - A Million Dead Stars.wav

Пиковый уровень 98.9 % Качество диапазона 99.9 % CRC теста DA41BEBC CRC копии DD792E15 Копирование... OK

Ошибок не произошло

AccurateRip: сводка

Трек 1 точное извлечение (доверие 7) [5FF14B57]Трек 2 точное извлечение (доверие 7) [445E0C1E]Трек 3 точное извлечение (доверие 7) [8B09C9C8]Трек 4 точность не определена (достоверность 7) [2967632F], AccurateRip вернул [9B45A427]Трек 5 точное извлечение (доверие 7) [AF5D100D]Трек 6 точное извлечение (доверие 7) [3BCE0E73]Трек 7 точное извлечение (доверие 7) [940DB6AA]Трек 8 точное извлечение (доверие 7) [27A2D2D2]Трек 9 точное извлечение (доверие 7) [B20D1404]Трек 10 точное извлечение (доверие 7) [9C65675D]Трек 11 точное извлечение (доверие 7) [01CB8C70]

0 трек(и) скопированы точно 1 трек(и) не удалось проверить на точность

Некоторые треки не прошли проверку на точность

Конец отчёта


Трекер:  [ 04-Мар-2012 08:04 ]

  

Скачать .torrent

Размер .torrent файла 14 KB


Размер: 338 MB
Хэш (hash) релиза: c4f747affd382b5e9c54630b740a9e0bd31df4a7

Еще никто не оставлял запись к записи скачать торрент The Brew - A Million Dead Stars - 2010, APE . Будь первым!

!Обратная связь