Скачать через торрент музыку Bill Magee Blues Band - Low Down Dirty Blues - 2004, APE бесплатно без регистрации torrent

Если у вас наблюдаются проблемы со скриншотами, переходом по ссылками, скачиванием торрентов - проблемы в блокировщике рекламы AdBlock. #хорошегоДня!


Статистика раздачи
Размер:  339 MB   |    Зарегистрирован:  5 лет 7 месяцев   |    .torrent скачан:  44 раза   |   
Раздают:  1  
   
Загрузка...
 
Автор Сообщение

Umakiro

avatar Umakiro


Bill Magee Blues Band - Low Down Dirty Blues

Жанр: Blues: Chicago Style
Год издания диска: 2004
Аудиокодек: APE (*.ape)
Тип рипа: image+.cue
Битрейт аудио: lossless
Продолжительность: 52:42
Источник (релизер): СD
Наличие сканов в содержимом раздачи: да
Треклист:
01. 1. Walked All Night Long [0:05:11.73]
02. 2. Here I Come(Coming Back for Your Love) [0:05:06.02]
03. 3. You Got Me Talking [0:04:58.72]
04. 4. Johnny B Good [0:04:58.00]
05. 5. Low Down Dirty Blues [0:04:47.60]
06. 6. Blues Ain't Nothing [0:04:17.26]
07. 7. Worry, Worry, Worry [0:06:26.60]
08. 8. Oh, Mary Anne [0:03:55.78]
09. 9. Something On Your Mind [0:04:16.94]
10. 10. Further On Up the Road [0:04:17.46]
11. 11. Walking the Dog [0:04:25.88]
  
Exact Audio Copy V0.99 prebeta 4 from 23. January 2008

Отчёт EAC об извлечении, выполненном 6. июля 2011, 0:18

Bill Magee Blues Band / Low Down Dirty Blues

Дисковод: Optiarc DVD RW AD-7173A Adapter: 0 ID: 1

Режим чтения : ДостоверностьИспользование точного потока : ДаОтключение кэша аудио : ДаИспользование указателей C2 : Нет

Коррекция смещения при чтении : 48Способность читать области Lead-in и Lead-out : НетЗаполнение пропущенных сэмплов тишиной : ДаУдаление блоков с тишиной в начале и конце : НетПри вычислениях CRC использовались нулевые сэмплы : ДаИнтерфейс : Встроенный Win32-интерфейс для Win NT/2000

Выходной формат : Внутренние WAV-операцииФормат сэмплов : 44.100 Гц; 16 бит; стерео

TOC извлечённого CD

Трек | Старт | Длительность | Начальный сектор | Конечный сектор --------------------------------------------------------------------- 1 | 0:00.00 | 5:11.55 | 0 | 23379 2 | 5:11.55 | 5:06.02 | 23380 | 46331 3 | 10:17.57 | 4:58.54 | 46332 | 68735 4 | 15:16.36 | 4:58.00 | 68736 | 91085 5 | 20:14.36 | 4:47.45 | 91086 | 112655 6 | 25:02.06 | 4:17.20 | 112656 | 131950 7 | 29:19.26 | 6:26.45 | 131951 | 160945 8 | 35:45.71 | 3:55.59 | 160946 | 178629 9 | 39:41.55 | 4:16.71 | 178630 | 197900 10 | 43:58.51 | 4:17.35 | 197901 | 217210 11 | 48:16.11 | 4:25.66 | 217211 | 237151

Характеристики диапазона извлечения и сообщения об ошибках

Выбранный диапазон

Имя файла D:\КОЛЛЕКЦИЯ 12\Новая папка\Bill Magee Blues Band - Low Down Dirty Blues.wav

Пиковый уровень 99.7 % Качество диапазона 100.0 % CRC теста 19AB2187 CRC копии 19AB2187 Копирование... OK

Ошибок не произошло

AccurateRip: сводка

Трек 1 нет в базе данныхТрек 2 нет в базе данныхТрек 3 нет в базе данныхТрек 4 нет в базе данныхТрек 5 нет в базе данныхТрек 6 нет в базе данныхТрек 7 нет в базе данныхТрек 8 нет в базе данныхТрек 9 нет в базе данныхТрек 10 нет в базе данныхТрек 11 нет в базе данных

Ни одного трека нет в базе AccurateRip

Конец отчёта


Трекер:  [ 04-Мар-2012 08:03 ]

  

Скачать .torrent

Размер .torrent файла 14 KB


Размер: 339 MB
Хэш (hash) релиза: e5c1b15d4779bf05a0bff39c3a56822390209b86

Еще никто не оставлял запись к записи скачать торрент Bill Magee Blues Band - Low Down Dirty Blues - 2004, APE . Будь первым!

!Обратная связь