Скачать через торрент музыку Matt Schofield - Anything But Time - 2011, APE бесплатно без регистрации torrent

Если у вас наблюдаются проблемы со скриншотами, переходом по ссылками, скачиванием торрентов - проблемы в блокировщике рекламы AdBlock. #хорошегоДня!


Статистика раздачи
Размер:  369 MB   |    Зарегистрирован:  5 лет 7 месяцев   |    .torrent скачан:  37 раз   |   
Раздают:  1  
   
Загрузка...
 
Автор Сообщение

Umakiro

avatar Umakiro


Matt Schofield - Anything But Time

Жанр: Blues
Год издания диска: 2011
Аудиокодек: APE (*.ape)
Тип рипа: image+.cue
Битрейт аудио: lossless
Продолжительность: 49:58
Источник (релизер): CD
Наличие сканов в содержимом раздачи: да
Треклист:
01. Anything But Time [0:03:38.41]
02. See Me Through [0:06:51.73]
03. At Times We Do Forget [0:05:41.76]
04. Shipwrecked [0:05:02.53]
05. Dreaming Of You [0:04:52.28]
06. Wrapped Up In Love [0:03:43.60]
07. Where Do I Have To Stand [0:07:00.48]
08. One Look (And I'm Hooked) [0:04:17.68]
09. Don't Know What I'd Do [0:04:11.53]
10. Share Our Smile Again [0:04:37.69]
  
Exact Audio Copy V0.99 prebeta 4 from 23. January 2008

Отчёт EAC об извлечении, выполненном 26. июля 2011, 0:54

Matt Schofield / Anything But Time

Дисковод: Optiarc DVD RW AD-7173A Adapter: 0 ID: 1

Режим чтения : ДостоверностьИспользование точного потока : ДаОтключение кэша аудио : ДаИспользование указателей C2 : Нет

Коррекция смещения при чтении : 48Способность читать области Lead-in и Lead-out : НетЗаполнение пропущенных сэмплов тишиной : ДаУдаление блоков с тишиной в начале и конце : НетПри вычислениях CRC использовались нулевые сэмплы : ДаИнтерфейс : Встроенный Win32-интерфейс для Win NT/2000

Выходной формат : Внутренние WAV-операцииФормат сэмплов : 44.100 Гц; 16 бит; стерео

TOC извлечённого CD

Трек | Старт | Длительность | Начальный сектор | Конечный сектор --------------------------------------------------------------------- 1 | 0:00.00 | 3:38.31 | 0 | 16380 2 | 3:38.31 | 6:51.55 | 16381 | 47260 3 | 10:30.11 | 5:41.57 | 47261 | 72892 4 | 16:11.68 | 5:02.40 | 72893 | 95582 5 | 21:14.33 | 4:52.21 | 95583 | 117503 6 | 26:06.54 | 3:43.45 | 117504 | 134273 7 | 29:50.24 | 7:00.36 | 134274 | 165809 8 | 36:50.60 | 4:17.51 | 165810 | 185135 9 | 41:08.36 | 4:11.40 | 185136 | 204000 10 | 45:20.01 | 4:37.52 | 204001 | 224827

Характеристики диапазона извлечения и сообщения об ошибках

Выбранный диапазон

Имя файла E:\РАЗДАЧИ\Matt Schofield - Anything But Time\Matt Schofield - Anything But Time.wav

Пиковый уровень 98.8 % Качество диапазона 99.9 % CRC теста 4499D4CF CRC копии 4499D4CF Копирование... OK

Ошибок не произошло

AccurateRip: сводка

Трек 1 точность не определена (достоверность 1) [AA6C2695], AccurateRip вернул [6F9F3974]Трек 2 точность не определена (достоверность 1) [F73B19D0], AccurateRip вернул [28C1A8AB]Трек 3 точность не определена (достоверность 1) [7D3E5BC8], AccurateRip вернул [FA9EA1F5]Трек 4 точность не определена (достоверность 1) [18948EDA], AccurateRip вернул [6D880014]Трек 5 точность не определена (достоверность 1) [2B3C65C7], AccurateRip вернул [9FDD5CC3]Трек 6 точность не определена (достоверность 1) [4476FFD6], AccurateRip вернул [C8109896]Трек 7 точность не определена (достоверность 1) [B8106693], AccurateRip вернул [4264A4D1]Трек 8 точность не определена (достоверность 1) [126AF955], AccurateRip вернул [EB95A261]Трек 9 точность не определена (достоверность 1) [7024C33C], AccurateRip вернул [2FB53951]Трек 10 точность не определена (достоверность 1) [A9A6B4EB], AccurateRip вернул [D2865F58]

Ни один трек не прошёл проверки на точностьВ вашей базе может быть иной вариант штамповки диска

Конец отчёта


Трекер:  [ 04-Мар-2012 08:02 ]

  

Скачать .torrent

Размер .torrent файла 15 KB


Размер: 369 MB
Хэш (hash) релиза: baba1f1011508860d73969eccfa32e8bcb5fc110

Еще никто не оставлял запись к записи скачать торрент Matt Schofield - Anything But Time - 2011, APE . Будь первым!

!Обратная связь