Скачать через торрент музыку Kenny Blues Boss Wayne - An Old Rock On A Roll - 2011, APE бесплатно без регистрации torrent

Если у вас наблюдаются проблемы со скриншотами, переходом по ссылками, скачиванием торрентов - проблемы в блокировщике рекламы AdBlock. #хорошегоДня!


Статистика раздачи
Размер:  354 MB   |    Зарегистрирован:  5 лет 7 месяцев   |    .torrent скачан:  41 раз   |   
Раздают:  1  
   
Загрузка...
 
Автор Сообщение

Umakiro

avatar Umakiro


Kenny 'Blues Boss' Wayne - An Old Rock On A Roll

Жанр: Blues
Год издания диска: 2011
Аудиокодек: APE (*.ape)
Тип рипа: image+.cue
Битрейт аудио: lossless
Продолжительность: 53:58
Источник (релизер): CD
Наличие сканов в содержимом раздачи: да
Треклист:
01. Searching For My Baby [0:04:10.13]
02. Fantasy Meets Reality [0:03:56.97]
03. Heaven Send Me An Angel [0:04:58.17]
04. Devil Woman [0:04:50.74]
05. An Old Rock On A Roll [0:03:46.88]
06. Don't Pretend [0:05:22.54]
07. Run Little Joe [0:03:06.36]
08. Howlin' [0:03:17.21]
09. Wild Turkey 101 Proof [0:04:05.42]
10. Bring Back The Love [0:05:49.09]
11. Way Overdue [0:04:11.65]
12. Rocking Boogie Party [0:02:23.89]
13. Give Thanks [0:03:58.46]
  
Exact Audio Copy V0.99 prebeta 4 from 23. January 2008

Отчёт EAC об извлечении, выполненном 26. июля 2011, 0:13

Kenny 'Blues Boss' Wayne / An Old Rock On A Roll

Дисковод: Optiarc DVD RW AD-7173A Adapter: 0 ID: 1

Режим чтения : ДостоверностьИспользование точного потока : ДаОтключение кэша аудио : ДаИспользование указателей C2 : Нет

Коррекция смещения при чтении : 48Способность читать области Lead-in и Lead-out : НетЗаполнение пропущенных сэмплов тишиной : ДаУдаление блоков с тишиной в начале и конце : НетПри вычислениях CRC использовались нулевые сэмплы : ДаИнтерфейс : Встроенный Win32-интерфейс для Win NT/2000

Выходной формат : Внутренние WAV-операцииФормат сэмплов : 44.100 Гц; 16 бит; стерео

TOC извлечённого CD

Трек | Старт | Длительность | Начальный сектор | Конечный сектор --------------------------------------------------------------------- 1 | 0:00.00 | 4:10.10 | 0 | 18759 2 | 4:10.10 | 3:56.73 | 18760 | 36532 3 | 8:07.08 | 4:58.13 | 36533 | 58895 4 | 13:05.21 | 4:50.56 | 58896 | 80701 5 | 17:56.02 | 3:46.66 | 80702 | 97717 6 | 21:42.68 | 5:22.41 | 97718 | 121908 7 | 27:05.34 | 3:06.27 | 121909 | 135885 8 | 30:11.61 | 3:17.16 | 135886 | 150676 9 | 33:29.02 | 4:05.32 | 150677 | 169083 10 | 37:34.34 | 5:49.07 | 169084 | 195265 11 | 43:23.41 | 4:11.49 | 195266 | 214139 12 | 47:35.15 | 2:23.67 | 214140 | 224931 13 | 49:59.07 | 3:58.35 | 224932 | 242816

Характеристики диапазона извлечения и сообщения об ошибках

Выбранный диапазон

Имя файла E:\РАЗДАЧИ\Kenny 'Blues Boss' Wayne - An Old Rock On A Roll\Kenny 'Blues Boss' Wayne - An Old Rock On A Roll.wav

Пиковый уровень 97.7 % Качество диапазона 99.9 % CRC теста 43BBD834 CRC копии 43BBD834 Копирование... OK

Ошибок не произошло

AccurateRip: сводка

Трек 1 нет в базе данныхТрек 2 нет в базе данныхТрек 3 нет в базе данныхТрек 4 нет в базе данныхТрек 5 нет в базе данныхТрек 6 нет в базе данныхТрек 7 нет в базе данныхТрек 8 нет в базе данныхТрек 9 нет в базе данныхТрек 10 нет в базе данныхТрек 11 нет в базе данныхТрек 12 нет в базе данныхТрек 13 нет в базе данных

Ни одного трека нет в базе AccurateRip

Конец отчёта


Трекер:  [ 04-Мар-2012 08:02 ]

  

Скачать .torrent

Размер .torrent файла 15 KB


Размер: 354 MB
Хэш (hash) релиза: fdc1cb150e05cb366908a7a733d343045c825323

Еще никто не оставлял запись к записи скачать торрент Kenny Blues Boss Wayne - An Old Rock On A Roll - 2011, APE . Будь первым!

!Обратная связь