Скачать через торрент музыку Honeyboy Hickling - Blue It - 2000, APE бесплатно без регистрации torrent

Если у вас наблюдаются проблемы со скриншотами, переходом по ссылками, скачиванием торрентов - проблемы в блокировщике рекламы AdBlock. #хорошегоДня!


Статистика раздачи
Размер:  284 MB   |    Зарегистрирован:  5 лет 7 месяцев   |    .torrent скачан:  38 раз   |   
Раздают:  1  
   
Загрузка...
 
Автор Сообщение

Umakiro

avatar Umakiro


Honeyboy Hickling - Blue It

Жанр: Blues
Год издания диска: 2000
Аудиокодек: APE (*.ape)
Тип рипа: image+.cue
Битрейт аудио: lossless
Продолжительность: 41:00
Источник (релизер): СD
Наличие сканов в содержимом раздачи: да
Треклист:
01. Wonderful Night [0:03:16.57]
02. Goodbye Maureen [0:04:30.68]
03. Do It Alone [0:03:54.72]
04. Delores [0:03:27.17]
05. Eddie Had to Leave Chicago [0:04:06.37]
06. It's Over [0:03:21.57]
07. Blue It [0:03:57.92]
08. Judgement Day [0:03:53.22]
09. Mumbles [Instrumental] [0:02:13.74]
10. Long Gone [0:03:36.49]
11. Blind Owl [0:04:41.61]
  
Exact Audio Copy V0.99 prebeta 4 from 23. January 2008

Отчёт EAC об извлечении, выполненном 12. июля 2011, 22:21

Honeyboy Hickling / Blue It

Дисковод: Optiarc DVD RW AD-7173A Adapter: 0 ID: 1

Режим чтения : ДостоверностьИспользование точного потока : ДаОтключение кэша аудио : ДаИспользование указателей C2 : Нет

Коррекция смещения при чтении : 48Способность читать области Lead-in и Lead-out : НетЗаполнение пропущенных сэмплов тишиной : ДаУдаление блоков с тишиной в начале и конце : НетПри вычислениях CRC использовались нулевые сэмплы : ДаИнтерфейс : Встроенный Win32-интерфейс для Win NT/2000

Выходной формат : Внутренние WAV-операцииФормат сэмплов : 44.100 Гц; 16 бит; стерео

TOC извлечённого CD

Трек | Старт | Длительность | Начальный сектор | Конечный сектор --------------------------------------------------------------------- 1 | 0:00.00 | 3:16.43 | 0 | 14742 2 | 3:16.43 | 4:30.51 | 14743 | 35043 3 | 7:47.19 | 3:54.54 | 35044 | 52647 4 | 11:41.73 | 3:27.13 | 52648 | 68185 5 | 15:09.11 | 4:06.28 | 68186 | 86663 6 | 19:15.39 | 3:21.43 | 86664 | 101781 7 | 22:37.07 | 3:57.69 | 101782 | 119625 8 | 26:35.01 | 3:53.17 | 119626 | 137117 9 | 30:28.18 | 2:13.56 | 137118 | 147148 10 | 32:41.74 | 3:36.37 | 147149 | 163385 11 | 36:18.36 | 4:41.46 | 163386 | 184506

Характеристики диапазона извлечения и сообщения об ошибках

Выбранный диапазон

Имя файла D:\КОЛЛЕКЦИЯ 12\Новая папка (18)\Honeyboy Hickling - Blue It.wav

Пиковый уровень 98.8 % Качество диапазона 100.0 % CRC теста D35C0CE9 CRC копии D35C0CE9 Копирование... OK

Ошибок не произошло

AccurateRip: сводка

Трек 1 нет в базе данныхТрек 2 нет в базе данныхТрек 3 нет в базе данныхТрек 4 нет в базе данныхТрек 5 нет в базе данныхТрек 6 нет в базе данныхТрек 7 нет в базе данныхТрек 8 нет в базе данныхТрек 9 нет в базе данныхТрек 10 нет в базе данныхТрек 11 нет в базе данных

Ни одного трека нет в базе AccurateRip

Конец отчёта


Трекер:  [ 04-Мар-2012 08:02 ]

  

Скачать .torrent

Размер .torrent файла 12 KB


Размер: 284 MB
Хэш (hash) релиза: 9ca755b4a9ee7d3d1c7591a2ae4ad8a6e8a870e7

Еще никто не оставлял запись к записи скачать торрент Honeyboy Hickling - Blue It - 2000, APE . Будь первым!

!Обратная связь