Скачать через торрент музыку Vince Agwada - 2 CD - 2008,2011, APE бесплатно без регистрации torrent

Если у вас наблюдаются проблемы со скриншотами, переходом по ссылками, скачиванием торрентов - проблемы в блокировщике рекламы AdBlock. #хорошегоДня!


Статистика раздачи
Размер:  995 MB   |    Зарегистрирован:  5 лет 7 месяцев   |    .torrent скачан:  54 раза   |   
Раздают:  1  
   
Загрузка...
 
Автор Сообщение

Umakiro

avatar Umakiro


Vince Agwada - 2 CD

Жанр: Blues-Rock
Год издания диска: 2008,2011
Аудиокодек: APE (*.ape)
Тип рипа: image+.cue
Битрейт аудио: lossless
Продолжительность: 1:17:00 + 1:05:41
Источник (релизер): CD
Наличие сканов в содержимом раздачи: да
Треклист:
01. It's a Shame [0:05:23.41]
02. Blooze [0:05:18.00]
03. Does it Really Matter [0:04:28.97]
04. Car Wash Blues [0:06:16.10]
05. I'm Coming Home [0:06:31.89]
06. Rain [0:07:59.14]
07. Confidence Man [0:04:58.30]
08. Tubed Out [0:04:02.96]
09. Hard to Cry [0:07:32.90]
10. Come on In [0:05:58.00]
11. Ellie [0:07:35.06]
12. Bottle [0:04:12.16]
13. Eyes of the City [0:06:43.36]
  
Exact Audio Copy V0.99 prebeta 4 from 23. January 2008

Отчёт EAC об извлечении, выполненном 8. октября 2011, 12:46

Vince Agwada / Eyes of the City

Дисковод: Optiarc DVD RW AD-7173A Adapter: 0 ID: 1

Режим чтения : ДостоверностьИспользование точного потока : ДаОтключение кэша аудио : ДаИспользование указателей C2 : Нет

Коррекция смещения при чтении : 48Способность читать области Lead-in и Lead-out : НетЗаполнение пропущенных сэмплов тишиной : ДаУдаление блоков с тишиной в начале и конце : НетПри вычислениях CRC использовались нулевые сэмплы : ДаИнтерфейс : Встроенный Win32-интерфейс для Win NT/2000

Выходной формат : Внутренние WAV-операцииФормат сэмплов : 44.100 Гц; 16 бит; стерео

TOC извлечённого CD

Трек | Старт | Длительность | Начальный сектор | Конечный сектор --------------------------------------------------------------------- 1 | 0:00.00 | 5:23.31 | 0 | 24255 2 | 5:23.31 | 5:18.00 | 24256 | 48105 3 | 10:41.31 | 4:28.73 | 48106 | 68278 4 | 15:10.29 | 6:16.08 | 68279 | 96486 5 | 21:26.37 | 6:31.67 | 96487 | 125878 6 | 27:58.29 | 7:59.11 | 125879 | 161814 7 | 35:57.40 | 4:58.23 | 161815 | 184187 8 | 40:55.63 | 4:02.72 | 184188 | 202409 9 | 44:58.60 | 7:32.68 | 202410 | 236377 10 | 52:31.53 | 5:58.00 | 236378 | 263227 11 | 58:29.53 | 7:35.05 | 263228 | 297357 12 | 66:04.58 | 4:12.12 | 297358 | 316269 13 | 70:16.70 | 6:43.27 | 316270 | 346521

Характеристики диапазона извлечения и сообщения об ошибках

Выбранный диапазон

Имя файла E:\РАЗДАЧИ\Vince Agwada - Eyes of the City\Vince Agwada - Eyes of the City.wav

Пиковый уровень 100.0 % Качество диапазона 100.0 % CRC теста 80CCD1E5 CRC копии 80CCD1E5 Копирование... OK

Ошибок не произошло

AccurateRip: сводка

Трек 1 точность не определена (достоверность 1) [7E84175D], AccurateRip вернул [9499246D]Трек 2 точность не определена (достоверность 1) [54DECB96], AccurateRip вернул [4E5D82B6]Трек 3 точность не определена (достоверность 1) [6A848E0C], AccurateRip вернул [A5D36366]Трек 4 точность не определена (достоверность 1) [B6667E03], AccurateRip вернул [7B6826A1]Трек 5 точность не определена (достоверность 1) [4DA9CB2A], AccurateRip вернул [800DDF30]Трек 6 точность не определена (достоверность 1) [51B0D930], AccurateRip вернул [E5BC7C59]Трек 7 точность не определена (достоверность 1) [30E951A1], AccurateRip вернул [5C0B84FB]Трек 8 точность не определена (достоверность 1) [F939A5F9], AccurateRip вернул [35F84504]Трек 9 точность не определена (достоверность 1) [41517CD8], AccurateRip вернул [17EDD848]Трек 10 точность не определена (достоверность 1) [B48D41A3], AccurateRip вернул [72A55BDF]Трек 11 точность не определена (достоверность 1) [AD812DE5], AccurateRip вернул [DA235191]Трек 12 точность не определена (достоверность 1) [0C8E96CF], AccurateRip вернул [F876907F]Трек 13 точность не определена (достоверность 1) [61A080F3], AccurateRip вернул [5AFAC561]

Ни один трек не прошёл проверки на точностьВ вашей базе может быть иной вариант штамповки диска

Конец отчёта
Треклист:
01. Chi-Town State Of Mind [0:05:00.04]
02. Blindsided [0:04:39.37]
03. President [0:03:25.17]
04. Big City Blues [0:07:13.08]
05. Head Too Tight [0:05:53.80]
06. Black Rain [0:08:53.76]
07. Shake It Up [0:07:25.86]
08. Basic Blue [0:04:05.26]
09. Sirius Biz [0:05:22.05]
10. Right On Time [0:04:39.50]
11. Train [0:03:32.90]
12. She Never Said... [0:05:30.34]
Exact Audio Copy V0.99 prebeta 4 from 23. January 2008

Отчёт EAC об извлечении, выполненном 8. октября 2011, 12:09

Vince Agwada / Basic Blue

Дисковод: Optiarc DVD RW AD-7173A Adapter: 0 ID: 1

Режим чтения : Достоверность
Использование точного потока : Да
Отключение кэша аудио : Да
Использование указателей C2 : Нет

Коррекция смещения при чтении : 48
Способность читать области Lead-in и Lead-out : Нет
Заполнение пропущенных сэмплов тишиной : Да
Удаление блоков с тишиной в начале и конце : Нет
При вычислениях CRC использовались нулевые сэмплы : Да
Интерфейс : Встроенный Win32-интерфейс для Win NT/2000

Выходной формат : Внутренние WAV-операции
Формат сэмплов : 44.100 Гц; 16 бит; стерео

TOC извлечённого CD

Трек | Старт | Длительность | Начальный сектор | Конечный сектор
---------------------------------------------------------------------
1 | 0:00.00 | 5:00.03 | 0 | 22502
2 | 5:00.03 | 4:39.28 | 22503 | 43455
3 | 9:39.31 | 3:25.13 | 43456 | 58843
4 | 13:04.44 | 7:13.06 | 58844 | 91324
5 | 20:17.50 | 5:53.60 | 91325 | 117859
6 | 26:11.35 | 8:53.57 | 117860 | 157891
7 | 35:05.17 | 7:25.65 | 157892 | 191331
8 | 42:31.07 | 4:05.20 | 191332 | 209726
9 | 46:36.27 | 5:22.04 | 209727 | 233880
10 | 51:58.31 | 4:39.38 | 233881 | 254843
11 | 56:37.69 | 3:32.68 | 254844 | 270811
12 | 60:10.62 | 5:30.26 | 270812 | 295587

Характеристики диапазона извлечения и сообщения об ошибках

Выбранный диапазон

Имя файла E:\РАЗДАЧИ\Vince Agwada - Basic Blue\Vince Agwada - Basic Blue.wav

Пиковый уровень 97.7 %
Качество диапазона 100.0 %
CRC теста E8E074AD
CRC копии E8E074AD
Копирование... OK

Ошибок не произошло

AccurateRip: сводка

Трек 1 нет в базе данных
Трек 2 нет в базе данных
Трек 3 нет в базе данных
Трек 4 нет в базе данных
Трек 5 нет в базе данных
Трек 6 нет в базе данных
Трек 7 нет в базе данных
Трек 8 нет в базе данных
Трек 9 нет в базе данных
Трек 10 нет в базе данных
Трек 11 нет в базе данных
Трек 12 нет в базе данных

Ни одного трека нет в базе AccurateRip

Конец отчёта


Трекер:  [ 03-Мар-2012 18:57 ]

  

Скачать .torrent

Размер .torrent файла 21 KB


Размер: 995 MB
Хэш (hash) релиза: 52200efb99119bed89ad372173956a75ebd5d28c

Еще никто не оставлял запись к записи скачать торрент Vince Agwada - 2 CD - 2008,2011, APE . Будь первым!

!Обратная связь