Скачать через торрент музыку Barry Levenson - The Late Show - 2011, APE бесплатно без регистрации torrent

Если у вас наблюдаются проблемы со скриншотами, переходом по ссылками, скачиванием торрентов - проблемы в блокировщике рекламы AdBlock. #хорошегоДня!


Статистика раздачи
Размер:  436 MB   |    Зарегистрирован:  5 лет 7 месяцев   |    .torrent скачан:  38 раз   |   
Раздают:  1  
   
Загрузка...
 
Автор Сообщение

Umakiro

avatar Umakiro


Barry Levenson - The Late Show

Жанр: Blues
Год издания диска: 2011
Аудиокодек: APE (*.ape)
Тип рипа: image+.cue
Битрейт аудио: lossless
Продолжительность: 1:17:21
Источник (релизер): CD
Наличие сканов в содержимом раздачи: да
Треклист:
01. Rileys Shuffle-Blue Tears [0:07:15.82]
02. Whole Lotta Blues [0:04:00.70]
03. One For Muddy [0:03:21.08]
04. Meters Running [0:04:59.73]
05. The Late Show [0:05:44.76]
06. Turn Up The AC [0:05:33.72]
07. Slippin Down Blues [0:05:48.10]
08. Charlie's Ride [0:03:22.17]
09. Steel Life [0:05:55.25]
10. Wrong Side Of The Blues [0:04:36.14]
11. West Side Rain [0:06:09.17]
12. Down The Hill [0:06:10.00]
13. Rush Hour [0:04:30.49]
14. Drinkin' Stops Me Thinkin' [0:04:21.56]
15. Green Is Blue [0:05:32.13]
  
Exact Audio Copy V0.99 prebeta 4 from 23. January 2008

Отчёт EAC об извлечении, выполненном 8. октября 2011, 1:27

Barry Levenson / The Late Show

Дисковод: Optiarc DVD RW AD-7173A Adapter: 0 ID: 1

Режим чтения : ДостоверностьИспользование точного потока : ДаОтключение кэша аудио : ДаИспользование указателей C2 : Нет

Коррекция смещения при чтении : 48Способность читать области Lead-in и Lead-out : НетЗаполнение пропущенных сэмплов тишиной : ДаУдаление блоков с тишиной в начале и конце : НетПри вычислениях CRC использовались нулевые сэмплы : ДаИнтерфейс : Встроенный Win32-интерфейс для Win NT/2000

Выходной формат : Внутренние WAV-операцииФормат сэмплов : 44.100 Гц; 16 бит; стерео

TOC извлечённого CD

Трек | Старт | Длительность | Начальный сектор | Конечный сектор --------------------------------------------------------------------- 1 | 0:00.00 | 7:15.62 | 0 | 32686 2 | 7:15.62 | 4:00.53 | 32687 | 50739 3 | 11:16.40 | 3:21.06 | 50740 | 65820 4 | 14:37.46 | 4:59.55 | 65821 | 88300 5 | 19:37.26 | 5:44.57 | 88301 | 114157 6 | 25:22.08 | 5:33.54 | 114158 | 139186 7 | 30:55.62 | 5:48.08 | 139187 | 165294 8 | 36:43.70 | 3:22.13 | 165295 | 180457 9 | 40:06.08 | 5:55.19 | 180458 | 207101 10 | 46:01.27 | 4:36.11 | 207102 | 227812 11 | 50:37.38 | 6:09.13 | 227813 | 255500 12 | 56:46.51 | 6:10.00 | 255501 | 283250 13 | 62:56.51 | 4:30.37 | 283251 | 303537 14 | 67:27.13 | 4:21.42 | 303538 | 323154 15 | 71:48.55 | 5:32.10 | 323155 | 348064

Характеристики диапазона извлечения и сообщения об ошибках

Выбранный диапазон

Имя файла E:\РАЗДАЧИ\Barry Levenson - The Late Show\Barry Levenson - The Late Show.wav

Пиковый уровень 98.2 % Качество диапазона 100.0 % CRC теста C3AF804B CRC копии C3AF804B Копирование... OK

Ошибок не произошло

AccurateRip: сводка

Трек 1 нет в базе данныхТрек 2 нет в базе данныхТрек 3 нет в базе данныхТрек 4 нет в базе данныхТрек 5 нет в базе данныхТрек 6 нет в базе данныхТрек 7 нет в базе данныхТрек 8 нет в базе данныхТрек 9 нет в базе данныхТрек 10 нет в базе данныхТрек 11 нет в базе данныхТрек 12 нет в базе данныхТрек 13 нет в базе данныхТрек 14 нет в базе данныхТрек 15 нет в базе данных

Ни одного трека нет в базе AccurateRip

Конец отчёта


Трекер:  [ 03-Мар-2012 18:56 ]

  

Скачать .torrent

Размер .torrent файла 18 KB


Размер: 436 MB
Хэш (hash) релиза: 7e30793879cf558cda53976c971603cce5515161

Еще никто не оставлял запись к записи скачать торрент Barry Levenson - The Late Show - 2011, APE . Будь первым!

!Обратная связь