Скачать через торрент музыку Vargas Blues Band - Live Wire - 2011, APE бесплатно без регистрации torrent

Если у вас наблюдаются проблемы со скриншотами, переходом по ссылками, скачиванием торрентов - проблемы в блокировщике рекламы AdBlock. #хорошегоДня!


Статистика раздачи
Размер:  476 MB   |    Зарегистрирован:  5 лет 7 месяцев   |    .torrent скачан:  53 раза   |   
Раздают:  1  
   
Загрузка...
 
Автор Сообщение

Umakiro

avatar Umakiro


Vargas Blues Band - Live Wire

Жанр: Blues-Rock
Год издания диска: 2011
Аудиокодек: APE (*.ape)
Тип рипа: image+.cue
Битрейт аудио: lossless
Продолжительность: 1:03:46
Источник (релизер): CD
Наличие сканов в содержимом раздачи: да
Треклист:
01. TALKING ABOUT THE BLUES (Live 2010) [0:05:05.04]
02. TEXAS TANGO (Live 2010) [0:04:12.92]
03. HARD TIME BLUES (Live 2010) [0:05:40.68]
04. Tobacco Road [0:04:32.33]
05. Thank You (Falettin Me Be Mice Elf Agin) [0:05:17.52]
06. People Get Ready [0:04:49.36]
07. BACK ALLEY BLUES (Live 2010) [0:08:56.44]
08. BLACK CAT BOOGIE (Featuring Jorge Salan) [0:10:44.90]
09. On The Road Again [0:05:21.00]
10. Purple Haze [0:03:28.26]
11. Them Changes [0:05:37.61]
  
Exact Audio Copy V0.99 prebeta 4 from 23. January 2008

Отчёт EAC об извлечении, выполненном 8. октября 2011, 2:16

Vargas Blues Band / Live Wire

Дисковод: Optiarc DVD RW AD-7173A Adapter: 0 ID: 1

Режим чтения : ДостоверностьИспользование точного потока : ДаОтключение кэша аудио : ДаИспользование указателей C2 : Нет

Коррекция смещения при чтении : 48Способность читать области Lead-in и Lead-out : НетЗаполнение пропущенных сэмплов тишиной : ДаУдаление блоков с тишиной в начале и конце : НетПри вычислениях CRC использовались нулевые сэмплы : ДаИнтерфейс : Встроенный Win32-интерфейс для Win NT/2000

Выходной формат : Внутренние WAV-операцииФормат сэмплов : 44.100 Гц; 16 бит; стерео

TOC извлечённого CD

Трек | Старт | Длительность | Начальный сектор | Конечный сектор --------------------------------------------------------------------- 1 | 0:00.00 | 5:05.03 | 0 | 22877 2 | 5:05.03 | 4:12.69 | 22878 | 41846 3 | 9:17.72 | 5:40.51 | 41847 | 67397 4 | 14:58.48 | 4:32.25 | 67398 | 87822 5 | 19:30.73 | 5:17.39 | 87823 | 111636 6 | 24:48.37 | 4:49.27 | 111637 | 133338 7 | 29:37.64 | 8:56.33 | 133339 | 173571 8 | 38:34.22 | 10:44.68 | 173572 | 221939 9 | 49:19.15 | 5:21.00 | 221940 | 246014 10 | 54:40.15 | 3:28.20 | 246015 | 261634 11 | 58:08.35 | 5:37.46 | 261635 | 286955

Характеристики диапазона извлечения и сообщения об ошибках

Выбранный диапазон

Имя файла E:\РАЗДАЧИ\Vargas Blues Band - Live Wire\Vargas Blues Band - Live Wire.wav

Пиковый уровень 99.8 % Качество диапазона 100.0 % CRC теста 39709F0E CRC копии 39709F0E Копирование... OK

Ошибок не произошло

AccurateRip: сводка

Трек 1 нет в базе данныхТрек 2 нет в базе данныхТрек 3 нет в базе данныхТрек 4 нет в базе данныхТрек 5 нет в базе данныхТрек 6 нет в базе данныхТрек 7 нет в базе данныхТрек 8 нет в базе данныхТрек 9 нет в базе данныхТрек 10 нет в базе данныхТрек 11 нет в базе данных

Ни одного трека нет в базе AccurateRip

Конец отчёта


Трекер:  [ 03-Мар-2012 18:54 ]

  

Скачать .torrent

Размер .torrent файла 19 KB


Размер: 476 MB
Хэш (hash) релиза: 358b10a90839b3899b5b77dee1dc9ffe6d95131b

Еще никто не оставлял запись к записи скачать торрент Vargas Blues Band - Live Wire - 2011, APE . Будь первым!

!Обратная связь