Скачать через торрент музыку Timo Gross - Fallen from Grace - 2011, APE бесплатно без регистрации torrent

Если у вас наблюдаются проблемы со скриншотами, переходом по ссылками, скачиванием торрентов - проблемы в блокировщике рекламы AdBlock. #хорошегоДня!


Статистика раздачи
Размер:  413 MB   |    Зарегистрирован:  5 лет 7 месяцев   |    .torrent скачан:  42 раза   |   
Раздают:  1  
   
Загрузка...
 
Автор Сообщение

Umakiro

avatar Umakiro


Timo Gross - Fallen from Grace

Жанр: Blues-Rock
Год издания диска: 2011
Аудиокодек: APE (*.ape)
Тип рипа: image+.cue
Битрейт аудио: lossless
Продолжительность: 54:04
Источник (релизер): CD
Наличие сканов в содержимом раздачи: да
Треклист:
01. Fallen From Grace [0:05:54.02]
02. Slow Down [0:04:16.68]
03. Stand up [0:04:14.08]
04. Open Road [0:04:18.36]
05. Bad [0:04:02.84]
06. One Of A Kind [0:06:21.09]
07. Will You Take Me [0:04:15.76]
08. Right On Time [0:04:02.93]
09. Small Town Blues [0:04:11.20]
10. Travellin Man [0:04:59.60]
11. Love Ain't Given Up On Me [0:03:48.64]
12. I Don't Know Why [0:03:38.45]
  
Exact Audio Copy V0.99 prebeta 4 from 23. January 2008

Отчёт EAC об извлечении, выполненном 29. октября 2011, 12:56

Timo Gross / Fallen from Grace

Дисковод: Optiarc DVD RW AD-7173A Adapter: 0 ID: 1

Режим чтения : ДостоверностьИспользование точного потока : ДаОтключение кэша аудио : ДаИспользование указателей C2 : Нет

Коррекция смещения при чтении : 48Способность читать области Lead-in и Lead-out : НетЗаполнение пропущенных сэмплов тишиной : ДаУдаление блоков с тишиной в начале и конце : НетПри вычислениях CRC использовались нулевые сэмплы : ДаИнтерфейс : Встроенный Win32-интерфейс для Win NT/2000

Выходной формат : Внутренние WAV-операцииФормат сэмплов : 44.100 Гц; 16 бит; стерео

TOC извлечённого CD

Трек | Старт | Длительность | Начальный сектор | Конечный сектор --------------------------------------------------------------------- 1 | 0:00.00 | 5:54.02 | 0 | 26551 2 | 5:54.02 | 4:16.51 | 26552 | 45802 3 | 10:10.53 | 4:14.06 | 45803 | 64858 4 | 14:24.59 | 4:18.27 | 64859 | 84235 5 | 18:43.11 | 4:02.63 | 84236 | 102448 6 | 22:45.74 | 6:21.07 | 102449 | 131030 7 | 29:07.06 | 4:15.57 | 131031 | 150212 8 | 33:22.63 | 4:02.70 | 150213 | 168432 9 | 37:25.58 | 4:11.15 | 168433 | 187272 10 | 41:36.73 | 4:59.45 | 187273 | 209742 11 | 46:36.43 | 3:48.48 | 209743 | 226890 12 | 50:25.16 | 3:38.34 | 226891 | 243274

Характеристики диапазона извлечения и сообщения об ошибках

Выбранный диапазон

Имя файла E:\РАЗДАЧИ\Timo Gross - Fallen from Grace\Timo Gross - Fallen from Grace.wav

Пиковый уровень 100.0 % Качество диапазона 100.0 % CRC теста EFB00596 CRC копии EFB00596 Копирование... OK

Ошибок не произошло

AccurateRip: сводка

Трек 1 нет в базе данныхТрек 2 нет в базе данныхТрек 3 нет в базе данныхТрек 4 нет в базе данныхТрек 5 нет в базе данныхТрек 6 нет в базе данныхТрек 7 нет в базе данныхТрек 8 нет в базе данныхТрек 9 нет в базе данныхТрек 10 нет в базе данныхТрек 11 нет в базе данныхТрек 12 нет в базе данных

Ни одного трека нет в базе AccurateRip

Конец отчёта


Трекер:  [ 03-Мар-2012 18:52 ]

  

Скачать .torrent

Размер .torrent файла 17 KB


Размер: 413 MB
Хэш (hash) релиза: a497cc4cadb77ae62fdd6ebcabdf8b008d4c70b0

Еще никто не оставлял запись к записи скачать торрент Timo Gross - Fallen from Grace - 2011, APE . Будь первым!

!Обратная связь