Скачать через торрент музыку Black Cat Bone - Delta Blues - 1990, APE бесплатно без регистрации torrent

Если у вас наблюдаются проблемы со скриншотами, переходом по ссылками, скачиванием торрентов - проблемы в блокировщике рекламы AdBlock. #хорошегоДня!


Статистика раздачи
Размер:  224 MB   |    Зарегистрирован:  5 лет 7 месяцев   |    .torrent скачан:  52 раза   |   
Раздают:  1  
   
Загрузка...
 
Автор Сообщение

Umakiro

avatar Umakiro


Black Cat Bone - Delta Blues

Жанр: Blues
Год издания диска: 1990
Аудиокодек: APE (*.ape)
Тип рипа: image+.cue
Битрейт аудио: lossless
Продолжительность: 44:00
Источник (релизер): CD
Наличие сканов в содержимом раздачи: да
Треклист:
01. Treat Me Right [0:03:51.86]
02. Larry Is Back [0:03:04.69]
03. Ain't Doin' Too Bad [0:04:08.44]
04. Just A Fool [0:03:42.66]
05. Reconsider Baby [0:09:50.66]
06. Delta Blues [0:18:09.16]
07. A Hachch'n A Maji [0:01:12.17]
  
Exact Audio Copy V0.99 prebeta 4 from 23. January 2008

Отчёт EAC об извлечении, выполненном 23. октября 2010, 1:04

Black Cat Bone / Delta Blues

Дисковод: PLEXTOR DVDR PX-820A Adapter: 3 ID: 1

Режим чтения : ДостоверностьИспользование точного потока : ДаОтключение кэша аудио : ДаИспользование указателей C2 : Нет

Коррекция смещения при чтении : 48Способность читать области Lead-in и Lead-out : НетЗаполнение пропущенных сэмплов тишиной : ДаУдаление блоков с тишиной в начале и конце : НетПри вычислениях CRC использовались нулевые сэмплы : ДаИнтерфейс : Встроенный Win32-интерфейс для Win NT/2000

Выходной формат : Внутренние WAV-операцииФормат сэмплов : 44.100 Гц; 16 бит; стерео

TOC извлечённого CD

Трек | Старт | Длительность | Начальный сектор | Конечный сектор --------------------------------------------------------------------- 1 | 0:00.00 | 3:51.65 | 0 | 17389 2 | 3:51.65 | 3:04.52 | 17390 | 31241 3 | 6:56.42 | 4:08.33 | 31242 | 49874 4 | 11:05.00 | 3:42.50 | 49875 | 66574 5 | 14:47.50 | 9:50.50 | 66575 | 110874 6 | 24:38.25 | 18:09.12 | 110875 | 192561 7 | 42:47.37 | 1:12.13 | 192562 | 197974

Характеристики диапазона извлечения и сообщения об ошибках

Выбранный диапазон

Имя файла D:\КОЛЛЕКЦИЯ 8\BLACK CAT BONE - DELTA BLUES\Black Cat Bone - Delta Blues.wav

Пиковый уровень 100.0 % Качество диапазона 100.0 % CRC копии AA8D6071 Копирование... OK

Ошибок не произошло

AccurateRip: сводка

Трек 1 нет в базе данныхТрек 2 нет в базе данныхТрек 3 нет в базе данныхТрек 4 нет в базе данныхТрек 5 нет в базе данныхТрек 6 нет в базе данныхТрек 7 нет в базе данных

Ни одного трека нет в базе AccurateRip

Конец отчёта


Трекер:  [ 03-Мар-2012 18:51 ]

  

Скачать .torrent

Размер .torrent файла 18 KB


Размер: 224 MB
Хэш (hash) релиза: 6a90c181a32f0f85a3471d0118e194d2f874efcd

Еще никто не оставлял запись к записи скачать торрент Black Cat Bone - Delta Blues - 1990, APE . Будь первым!

!Обратная связь