Скачать через торрент музыку Bobby Mack & Night Train - Honeytrap - 1993, APE бесплатно без регистрации torrent

Если у вас наблюдаются проблемы со скриншотами, переходом по ссылками, скачиванием торрентов - проблемы в блокировщике рекламы AdBlock. #хорошегоДня!


Статистика раздачи
Размер:  366 MB   |    Зарегистрирован:  5 лет 7 месяцев   |    .torrent скачан:  32 раза   |   
Раздают:  1  
   
Загрузка...
 
Автор Сообщение

Umakiro

avatar Umakiro


Bobby Mack & Night Train - Honeytrap

Жанр: Blues
Год издания диска: 1993
Аудиокодек: APE (*.ape)
Тип рипа: image+.cue
Битрейт аудио: lossless
Продолжительность: 1:00:40
Источник (релизер): CD
Наличие сканов в содержимом раздачи: да
Треклист:
01. Honeytrap [0:05:05.84]
02. Promise Me Love [0:04:08.80]
03. Only Getting Second Best [0:04:16.53]
04. Love Can Be Cruel [0:03:52.73]
05. Get Your Love [0:03:08.16]
06. Tell Me Who (Do You Love) [0:04:32.10]
07. That's Alright [0:06:00.73]
08. Drivin' Sideways [0:04:37.56]
09. Come Back Baby [0:04:04.57]
10. Eazy Baby [0:05:10.73]
11. Got A feeling [0:04:57.06]
12. I'm Gonna Love You [0:05:16.00]
13. So Low Down [0:05:28.73]
  
Exact Audio Copy V0.99 prebeta 4 from 23. January 2008

EAC extraction logfile from 13. December 2010, 23:27

Bobby Mack & Night Train / Honeytrap

Used drive : PLEXTOR DVDR PX-820A Adapter: 3 ID: 1

Read mode : SecureUtilize accurate stream : YesDefeat audio cache : YesMake use of C2 pointers : No

Read offset correction : 48Overread into Lead-In and Lead-Out : NoFill up missing offset samples with silence : YesDelete leading and trailing silent blocks : NoNull samples used in CRC calculations : YesUsed interface : Native Win32 interface for Win NT & 2000

Used output format : Internal WAV RoutinesSample format : 44.100 Hz; 16 Bit; Stereo

TOC of the extracted CD

Track | Start | Length | Start sector | End sector --------------------------------------------------------- 1 | 0:00.32 | 5:05.63 | 32 | 22969 2 | 5:06.20 | 4:08.60 | 22970 | 41629 3 | 9:15.05 | 4:16.40 | 41630 | 60869 4 | 13:31.45 | 3:52.55 | 60870 | 78324 5 | 17:24.25 | 3:08.12 | 78325 | 92436 6 | 20:32.37 | 4:32.08 | 92437 | 112844 7 | 25:04.45 | 6:00.55 | 112845 | 139899 8 | 31:05.25 | 4:37.42 | 139900 | 160716 9 | 35:42.67 | 4:04.43 | 160717 | 179059 10 | 39:47.35 | 5:10.55 | 179060 | 202364 11 | 44:58.15 | 4:57.05 | 202365 | 224644 12 | 49:55.20 | 5:16.00 | 224645 | 248344 13 | 55:11.20 | 5:28.55 | 248345 | 272999

Range status and errors

Selected range

Filename D:\КОЛЛЕКЦИЯ 9\BOBBY MACK & NIGHT TRAIN\Bobby Mack & Night Train - Honeytrap.wav

Peak level 95.6 % Range quality 99.9 % Copy CRC B70DF6B9 Copy OK

No errors occurred

AccurateRip summary

Track 1 accurately ripped (confidence 5) [218220C8]Track 2 accurately ripped (confidence 5) [10FA64FD]Track 3 accurately ripped (confidence 5) [EB2E2AC2]Track 4 accurately ripped (confidence 5) [10F1A488]Track 5 accurately ripped (confidence 5) [FF941D76]Track 6 accurately ripped (confidence 5) [04BF1C5F]Track 7 accurately ripped (confidence 5) [42A4BD4E]Track 8 accurately ripped (confidence 4) [5B861B02]Track 9 accurately ripped (confidence 5) [CFCCAEDD]Track 10 accurately ripped (confidence 5) [FAB8D88F]Track 11 cannot be verified as accurate (confidence 5) [1C97C983], AccurateRip returned [C128F570]Track 12 accurately ripped (confidence 5) [610E272D]Track 13 accurately ripped (confidence 5) [6C7B7A34]

12 track(s) accurately ripped 1 track(s) could not be verified as accurate

Some tracks could not be verified as accurate

End of status report


Трекер:  [ 03-Мар-2012 18:51 ]

  

Скачать .torrent

Размер .torrent файла 15 KB


Размер: 366 MB
Хэш (hash) релиза: 1e2c9ce3f756d189f4f20fbdc11375e4c6f6fa27

Еще никто не оставлял запись к записи скачать торрент Bobby Mack & Night Train - Honeytrap - 1993, APE . Будь первым!

!Обратная связь