Скачать через торрент музыку Adam Holt & The Blues Congregation - Who I Am - 2002, APE бесплатно без регистрации torrent

Если у вас наблюдаются проблемы со скриншотами, переходом по ссылками, скачиванием торрентов - проблемы в блокировщике рекламы AdBlock. #хорошегоДня!


Статистика раздачи
Размер:  420 MB   |    Зарегистрирован:  5 лет 7 месяцев   |    .torrent скачан:  50 раз   |   
Раздают:  1  
   
Загрузка...
 
Автор Сообщение

Umakiro

avatar Umakiro


Adam Holt & The Blues Congregation - Who I Am

Жанр: Blues-Rock
Год издания диска: 2002
Аудиокодек: APE (*.ape)
Тип рипа: image+.cue
Битрейт аудио: lossless
Продолжительность: 1:05:40
Источник (релизер): CD
Наличие сканов в содержимом раздачи: да
Треклист:
01. Who I am [0:03:33.90]
02. Killer On The Loose [0:05:22.40]
03. The End [0:06:21.85]
04. Drunk On Love [0:03:55.24]
05. Holding On To Your Love [0:04:46.84]
06. Honey-Doos [0:04:47.21]
07. Going Back To Mobile [0:05:06.10]
08. Queenie Makes Me Feel [0:03:14.58]
09. How Do I Love Thee [0:04:37.48]
10. Knocking At Your Door [0:06:28.53]
11. Hole In My Pocket [0:17:26.14]
  
Exact Audio Copy V0.99 prebeta 4 from 23. January 2008

Отчёт EAC об извлечении, выполненном 17. сентября 2010, 1:46

Adam Holt & The Blues Congregation / Who I Am

Дисковод: PLEXTOR DVDR PX-820A Adapter: 3 ID: 1

Режим чтения : ДостоверностьИспользование точного потока : ДаОтключение кэша аудио : ДаИспользование указателей C2 : Нет

Коррекция смещения при чтении : 48Способность читать области Lead-in и Lead-out : НетЗаполнение пропущенных сэмплов тишиной : ДаУдаление блоков с тишиной в начале и конце : НетПри вычислениях CRC использовались нулевые сэмплы : ДаИнтерфейс : Встроенный Win32-интерфейс для Win NT/2000

Выходной формат : Внутренние WAV-операцииФормат сэмплов : 44.100 Гц; 16 бит; стерео

TOC извлечённого CD

Трек | Старт | Длительность | Начальный сектор | Конечный сектор --------------------------------------------------------------------- 1 | 0:00.00 | 3:33.68 | 0 | 16042 2 | 3:33.68 | 5:22.30 | 16043 | 40222 3 | 8:56.23 | 6:21.64 | 40223 | 68861 4 | 15:18.12 | 3:55.18 | 68862 | 86504 5 | 19:13.30 | 4:46.63 | 86505 | 108017 6 | 24:00.18 | 4:47.16 | 108018 | 129558 7 | 28:47.34 | 5:06.08 | 129559 | 152516 8 | 33:53.42 | 3:14.44 | 152517 | 167110 9 | 37:08.11 | 4:37.36 | 167111 | 187921 10 | 41:45.47 | 6:28.40 | 187922 | 217061 11 | 48:14.12 | 17:26.11 | 217062 | 295522

Характеристики диапазона извлечения и сообщения об ошибках

Выбранный диапазон

Имя файла D:\КОЛЛЕКЦИЯ 7\ADAM HOLT & THE BLUES CONGREGA\Adam Holt & The Blues Congregation - Who I Am.wav

Пиковый уровень 99.3 % Качество диапазона 99.9 % CRC копии 4FE8BC75 Копирование... OK

Ошибок не произошло

AccurateRip: сводка

Трек 1 нет в базе данныхТрек 2 нет в базе данныхТрек 3 нет в базе данныхТрек 4 нет в базе данныхТрек 5 нет в базе данныхТрек 6 нет в базе данныхТрек 7 нет в базе данныхТрек 8 нет в базе данныхТрек 9 нет в базе данныхТрек 10 нет в базе данныхТрек 11 нет в базе данных

Ни одного трека нет в базе AccurateRip

Конец отчёта


Трекер:  [ 03-Мар-2012 18:50 ]

  

Скачать .torrent

Размер .torrent файла 17 KB


Размер: 420 MB
Хэш (hash) релиза: 5216c653c88a0289dfe6080e226e460ba99eccd6

Еще никто не оставлял запись к записи скачать торрент Adam Holt & The Blues Congregation - Who I Am - 2002, APE . Будь первым!

!Обратная связь