Скачать через торрент музыку "Sir" Oliver Mallys Blues Distillery - Fleeting Moments - 2011, APE бесплатно без регистрации torrent

Если у вас наблюдаются проблемы со скриншотами, переходом по ссылками, скачиванием торрентов - проблемы в блокировщике рекламы AdBlock. #хорошегоДня!


Статистика раздачи
Размер:  276 MB   |    Зарегистрирован:  5 лет 7 месяцев   |    .torrent скачан:  44 раза   |   
Раздают:  1  
   
Загрузка...
 
Автор Сообщение

Umakiro

avatar Umakiro


"Sir" Oliver Mally's Blues Distillery - Fleeting Moments

Жанр: Blues
Год издания диска: 2011
Аудиокодек: APE (*.ape)
Тип рипа: image+.cue
Битрейт аудио: lossless
Продолжительность: 48:48
Источник (релизер): СD
Наличие сканов в содержимом раздачи: нет
Сканер приказал долго жить[b]

:
01. Here I am [0:04:19.14]
02. Fleeting Moments [0:06:45.68]
03. Heading for a Fall [0:05:34.45]
04. Sleepwalking [0:05:20.12]
05. You and I [0:05:54.94]
06. Everythingґs Alright [0:04:40.34]
07. Stumble and Fall [0:04:20.57]
08. Life is Precious [0:06:38.25]
09. Smells like Teen Spirit [0:05:14.42]
  
Exact Audio Copy V0.99 prebeta 4 from 23. January 2008

Отчёт EAC об извлечении, выполненном 19. ноября 2011, 14:46

"Sir" Oliver Mally's Blues Distillery / Fleeting Moments

Дисковод: Optiarc DVD RW AD-7173A Adapter: 0 ID: 1

Режим чтения : ДостоверностьИспользование точного потока : ДаОтключение кэша аудио : ДаИспользование указателей C2 : Нет

Коррекция смещения при чтении : 48Способность читать области Lead-in и Lead-out : НетЗаполнение пропущенных сэмплов тишиной : ДаУдаление блоков с тишиной в начале и конце : НетПри вычислениях CRC использовались нулевые сэмплы : ДаИнтерфейс : Встроенный Win32-интерфейс для Win NT/2000

Выходной формат : Внутренние WAV-операцииФормат сэмплов : 44.100 Гц; 16 бит; стерео

TOC извлечённого CD

Трек | Старт | Длительность | Начальный сектор | Конечный сектор --------------------------------------------------------------------- 1 | 0:00.00 | 4:19.11 | 0 | 19435 2 | 4:19.11 | 6:45.51 | 19436 | 49861 3 | 11:04.62 | 5:34.34 | 49862 | 74945 4 | 16:39.21 | 5:20.09 | 74946 | 98954 5 | 21:59.30 | 5:54.71 | 98955 | 125575 6 | 27:54.26 | 4:40.26 | 125576 | 146601 7 | 32:34.52 | 4:20.43 | 146602 | 166144 8 | 36:55.20 | 6:38.19 | 166145 | 196013 9 | 43:33.39 | 5:14.32 | 196014 | 219595

Характеристики диапазона извлечения и сообщения об ошибках

Выбранный диапазон

Имя файла E:\РАЗДАЧИ\''Sir'' Oliver Mally's Blues Distillery - Fleeting Moments\Sir Oliver Mally's Blues Distillery - Fleeting Moments.wav

Пиковый уровень 100.0 % Качество диапазона 100.0 % CRC теста 37CC858A CRC копии 37CC858A Копирование... OK

Ошибок не произошло

AccurateRip: сводка

Трек 1 нет в базе данныхТрек 2 нет в базе данныхТрек 3 нет в базе данныхТрек 4 нет в базе данныхТрек 5 нет в базе данныхТрек 6 нет в базе данныхТрек 7 нет в базе данныхТрек 8 нет в базе данныхТрек 9 нет в базе данных

Ни одного трека нет в базе AccurateRip

Конец отчёта


Трекер:  [ 03-Мар-2012 18:50 ]

  

Скачать .torrent

Размер .torrent файла 11 KB


Размер: 276 MB
Хэш (hash) релиза: d39b1039035d237722db0b20c5cf17223377525b

Еще никто не оставлял запись к записи скачать торрент "Sir" Oliver Mallys Blues Distillery - Fleeting Moments - 2011, APE . Будь первым!

!Обратная связь