Скачать через торрент музыку Randy Dawson - DNile Blues - 2005, APE бесплатно без регистрации torrent

Если у вас наблюдаются проблемы со скриншотами, переходом по ссылками, скачиванием торрентов - проблемы в блокировщике рекламы AdBlock. #хорошегоДня!


Статистика раздачи
Размер:  283 MB   |    Зарегистрирован:  5 лет 7 месяцев   |    .torrent скачан:  47 раз   |   
Раздают:  1  
   
Загрузка...
 
Автор Сообщение

Umakiro

avatar Umakiro


Randy Dawson - D'Nile Blues

Жанр: Blues
Год издания диска: 2005
Аудиокодек: APE (*.ape)
Тип рипа: image+.cue
Битрейт аудио: lossless
Продолжительность: 38:33
Источник (релизер): CD
Наличие сканов в содержимом раздачи: да
Треклист:
01. Shiver [0:03:24.34]
02. Randy's Blues [0:04:00.37]
03. Singing 4U [0:05:40.20]
04. Benefit Blues [0:03:11.57]
05. These Shoes [0:02:48.96]
06. Irish Queen [0:03:28.77]
07. Half A World Away [0:04:56.54]
08. Standing On Shaky Ground [0:03:59.25]
09. Maniac Insomniac [0:03:16.30]
10. D'Nile Blues [0:03:46.56]
  
Exact Audio Copy V0.99 prebeta 4 from 23. January 2008

Отчёт EAC об извлечении, выполненном 8. сентября 2011, 17:52

Randy Dawson / D'Nile Blues

Дисковод: Optiarc DVD RW AD-7173A Adapter: 0 ID: 1

Режим чтения : ДостоверностьИспользование точного потока : ДаОтключение кэша аудио : ДаИспользование указателей C2 : Нет

Коррекция смещения при чтении : 48Способность читать области Lead-in и Lead-out : НетЗаполнение пропущенных сэмплов тишиной : ДаУдаление блоков с тишиной в начале и конце : НетПри вычислениях CRC использовались нулевые сэмплы : ДаИнтерфейс : Встроенный Win32-интерфейс для Win NT/2000

Выходной формат : Внутренние WAV-операцииФормат сэмплов : 44.100 Гц; 16 бит; стерео

TOC извлечённого CD

Трек | Старт | Длительность | Начальный сектор | Конечный сектор --------------------------------------------------------------------- 1 | 0:00.00 | 3:24.26 | 0 | 15325 2 | 3:24.26 | 4:00.28 | 15326 | 33353 3 | 7:24.54 | 5:40.15 | 33354 | 58868 4 | 13:04.69 | 3:11.43 | 58869 | 73236 5 | 16:16.37 | 2:48.72 | 73237 | 85908 6 | 19:05.34 | 3:28.58 | 85909 | 101566 7 | 22:34.17 | 4:56.41 | 101567 | 123807 8 | 27:30.58 | 3:59.19 | 123808 | 141751 9 | 31:30.02 | 3:16.23 | 141752 | 156474 10 | 34:46.25 | 3:46.42 | 156475 | 173466

Характеристики диапазона извлечения и сообщения об ошибках

Выбранный диапазон

Имя файла D:\КОЛЛЕКЦИЯ 12\Новая папка (36)\Randy Dawson - D'Nile Blues.wav

Пиковый уровень 100.0 % Качество диапазона 100.0 % CRC теста 0ADF85B6 CRC копии 0ADF85B6 Копирование... OK

Ошибок не произошло

AccurateRip: сводка

Трек 1 нет в базе данныхТрек 2 нет в базе данныхТрек 3 нет в базе данныхТрек 4 нет в базе данныхТрек 5 нет в базе данныхТрек 6 нет в базе данныхТрек 7 нет в базе данныхТрек 8 нет в базе данныхТрек 9 нет в базе данныхТрек 10 нет в базе данных

Ни одного трека нет в базе AccurateRip

Конец отчёта


Трекер:  [ 03-Мар-2012 18:49 ]

  

Скачать .torrent

Размер .torrent файла 12 KB


Размер: 283 MB
Хэш (hash) релиза: 7489c2a8ff3c4e68225c66b550248745df082aa8

Еще никто не оставлял запись к записи скачать торрент Randy Dawson - DNile Blues - 2005, APE . Будь первым!

!Обратная связь