Скачать через торрент музыку Woodleg Odds - Norwegian Wood - 2003, APE бесплатно без регистрации torrent

Если у вас наблюдаются проблемы со скриншотами, переходом по ссылками, скачиванием торрентов - проблемы в блокировщике рекламы AdBlock. #хорошегоДня!


Статистика раздачи
Размер:  407 MB   |    Зарегистрирован:  5 лет 7 месяцев   |    .torrent скачан:  38 раз   |   
Раздают:  1  
   
Загрузка...
 
Автор Сообщение

Umakiro

avatar Umakiro


Woodleg Odd's - Norwegian Wood

Жанр: Blues
Год издания диска: 2003
Аудиокодек: APE (*.ape)
Тип рипа: image+.cue
Битрейт аудио: lossless
Продолжительность: 1:00:09
Источник (релизер): CD
Наличие сканов в содержимом раздачи: да
Треклист:
01. The Old Man Blues [0:04:11.78]
02. Sarting Over [0:04:46.36]
03. The Right Track [0:03:53.02]
04. Who Turned You Loose [0:04:28.88]
05. Green Eyed Woman [0:03:44.68]
06. Times Are Changin' [0:04:23.05]
07. Strange Behaviour [0:03:46.34]
08. You Came Right on Time [0:04:12.12]
09. Don't Let It Go [0:03:58.94]
10. I Got Blues [0:04:11.56]
11. They Don't Feed You With Lies [0:03:50.21]
12. You Done me Wrong [0:03:46.34]
13. First Mistery [0:04:29.29]
14. Ravin' Blues [0:03:23.13]
15. I Give You All You Need [0:03:03.52]
  
Exact Audio Copy V0.99 prebeta 4 from 23. January 2008

Отчёт EAC об извлечении, выполненном 12. июля 2011, 6:48

Woodleg Odds / Norwegien Wood

Дисковод: Optiarc DVD RW AD-7173A Adapter: 0 ID: 1

Режим чтения : ДостоверностьИспользование точного потока : ДаОтключение кэша аудио : ДаИспользование указателей C2 : Нет

Коррекция смещения при чтении : 48Способность читать области Lead-in и Lead-out : НетЗаполнение пропущенных сэмплов тишиной : ДаУдаление блоков с тишиной в начале и конце : НетПри вычислениях CRC использовались нулевые сэмплы : ДаИнтерфейс : Встроенный Win32-интерфейс для Win NT/2000

Выходной формат : Внутренние WAV-операцииФормат сэмплов : 44.100 Гц; 16 бит; стерео

TOC извлечённого CD

Трек | Старт | Длительность | Начальный сектор | Конечный сектор --------------------------------------------------------------------- 1 | 0:00.00 | 4:11.59 | 0 | 18883 2 | 4:11.59 | 4:46.27 | 18884 | 40360 3 | 8:58.11 | 3:53.02 | 40361 | 57837 4 | 12:51.13 | 4:28.66 | 57838 | 78003 5 | 17:20.04 | 3:44.51 | 78004 | 94854 6 | 21:04.55 | 4:23.04 | 94855 | 114583 7 | 25:27.59 | 3:46.26 | 114584 | 131559 8 | 29:14.10 | 4:12.09 | 131560 | 150468 9 | 33:26.19 | 3:58.71 | 150469 | 168389 10 | 37:25.15 | 4:11.42 | 168390 | 187256 11 | 41:36.57 | 3:50.16 | 187257 | 204522 12 | 45:26.73 | 3:46.26 | 204523 | 221498 13 | 49:13.24 | 4:29.22 | 221499 | 241695 14 | 53:42.46 | 3:23.10 | 241696 | 256930 15 | 57:05.56 | 3:03.39 | 256931 | 270694

Характеристики диапазона извлечения и сообщения об ошибках

Выбранный диапазон

Имя файла D:\КОЛЛЕКЦИЯ 12\Новая папка (8)\Woodleg Odds - Norwegien Wood.wav

Пиковый уровень 100.0 % Качество диапазона 99.9 % CRC теста 635B1B13 CRC копии 635B1B13 Копирование... OK

Ошибок не произошло

AccurateRip: сводка

Трек 1 нет в базе данныхТрек 2 нет в базе данныхТрек 3 нет в базе данныхТрек 4 нет в базе данныхТрек 5 нет в базе данныхТрек 6 нет в базе данныхТрек 7 нет в базе данныхТрек 8 нет в базе данныхТрек 9 нет в базе данныхТрек 10 нет в базе данныхТрек 11 нет в базе данныхТрек 12 нет в базе данныхТрек 13 нет в базе данныхТрек 14 нет в базе данныхТрек 15 нет в базе данных

Ни одного трека нет в базе AccurateRip

Конец отчёта


Трекер:  [ 03-Мар-2012 18:49 ]

  

Скачать .torrent

Размер .torrent файла 17 KB


Размер: 407 MB
Хэш (hash) релиза: 97cd3587e3df7f1fa39f21adc4cb9a2dd0fad034

Еще никто не оставлял запись к записи скачать торрент Woodleg Odds - Norwegian Wood - 2003, APE . Будь первым!

!Обратная связь