Скачать через торрент музыку The Jeff Healey Band Full Circle:The Live Antholog бесплатно без регистрации torrent

Если у вас наблюдаются проблемы со скриншотами, переходом по ссылками, скачиванием торрентов - проблемы в блокировщике рекламы AdBlock. #хорошегоДня!


Статистика раздачи
Размер:  1.06 GB   |    Зарегистрирован:  5 лет 7 месяцев   |    .torrent скачан:  56 раз   |   
Раздают:  1  
   
Загрузка...
 
Автор Сообщение

Umakiro

avatar Umakiro


The Jeff Healey Band / Full Circle:The Live Anthology(3CD)

Жанр: Blues/Rock
Год издания диска: 2011
Аудиокодек: APE (*.ape)
Тип рипа: image+.cue
Битрейт аудио: lossless
Продолжительность: 1:02:32+43:53+1:14:08
Источник (релизер): CD
Наличие сканов в содержимом раздачи: да
Треклист:
01. My Little Girl [0:03:39.86]
02. Blue Jean Blues [0:10:26.08]
03. I Think I Love You Too Much [0:05:32.57]
04. How Can a Man Be Strong? [0:05:31.53]
05. I Can't Get My Hands On You [0:05:33.21]
06. Full Circle [0:05:42.20]
07. Angel Eyes [0:06:06.69]
08. Guitar Solo [0:02:19.52]
09. See The Light [0:11:39.34]
10. While My Guitar Gently Weeps [0:06:01.05]
  
Exact Audio Copy V0.99 prebeta 4 from 23. January 2008

Отчёт EAC об извлечении, выполненном 4. февраля 2012, 0:23

Jeff Healey / Live at St. Gallen 1991

Дисковод: Optiarc DVD RW AD-7173A Adapter: 0 ID: 1

Режим чтения : ДостоверностьИспользование точного потока : ДаОтключение кэша аудио : ДаИспользование указателей C2 : Нет

Коррекция смещения при чтении : 48Способность читать области Lead-in и Lead-out : НетЗаполнение пропущенных сэмплов тишиной : ДаУдаление блоков с тишиной в начале и конце : НетПри вычислениях CRC использовались нулевые сэмплы : ДаИнтерфейс : Встроенный Win32-интерфейс для Win NT/2000

Выходной формат : Внутренние WAV-операцииФормат сэмплов : 44.100 Гц; 16 бит; стерео

TOC извлечённого CD

Трек | Старт | Длительность | Начальный сектор | Конечный сектор --------------------------------------------------------------------- 1 | 0:00.00 | 3:39.65 | 0 | 16489 2 | 3:39.65 | 10:26.06 | 16490 | 63445 3 | 14:05.71 | 5:32.43 | 63446 | 88388 4 | 19:38.39 | 5:31.40 | 88389 | 113253 5 | 25:10.04 | 5:33.16 | 113254 | 138244 6 | 30:43.20 | 5:42.15 | 138245 | 163909 7 | 36:25.35 | 6:06.52 | 163910 | 191411 8 | 42:32.12 | 2:19.39 | 191412 | 201875 9 | 44:51.51 | 11:39.26 | 201876 | 254326 10 | 56:31.02 | 6:01.04 | 254327 | 281405

Характеристики диапазона извлечения и сообщения об ошибках

Выбранный диапазон

Имя файла E:\РАЗДАЧИ\Jeff Healey - Full Circle The Live Anthology\Live at St. Gallen 1991\Jeff Healey - Live at St. Gallen 1991.wav

Пиковый уровень 99.7 % Качество диапазона 99.9 % CRC теста 0F102822 CRC копии 0F102822 Копирование... OK

Ошибок не произошло

AccurateRip: сводка

Трек 1 нет в базе данныхТрек 2 нет в базе данныхТрек 3 нет в базе данныхТрек 4 нет в базе данныхТрек 5 нет в базе данныхТрек 6 нет в базе данныхТрек 7 нет в базе данныхТрек 8 нет в базе данныхТрек 9 нет в базе данныхТрек 10 нет в базе данных

Ни одного трека нет в базе AccurateRip

Конец отчёта
Треклист
01. I Got a Line On You [0:03:45.76]
02. Stop Breakin' Down Blues [0:06:15.48]
03. As The Years Go Passing Bye [0:05:19.74]
04. Yer Blues [0:04:34.74]
05. Stuck In the Middle With You [0:03:56.02]
06. Evil (Is Going On) [0:05:47.90]
07. Angel [0:05:41.66]
08. See The Light [0:08:31.49]
Exact Audio Copy V0.99 prebeta 4 from 23. January 2008

Отчёт EAC об извлечении, выполненном 4. февраля 2012, 11:35

The Jeff Healey Band / Live at the Hard Rock 1995

Дисковод: Optiarc DVD RW AD-7173A Adapter: 0 ID: 1

Режим чтения : Достоверность
Использование точного потока : Да
Отключение кэша аудио : Да
Использование указателей C2 : Нет

Коррекция смещения при чтении : 48
Способность читать области Lead-in и Lead-out : Нет
Заполнение пропущенных сэмплов тишиной : Да
Удаление блоков с тишиной в начале и конце : Нет
При вычислениях CRC использовались нулевые сэмплы : Да
Интерфейс : Встроенный Win32-интерфейс для Win NT/2000

Выходной формат : Внутренние WAV-операции
Формат сэмплов : 44.100 Гц; 16 бит; стерео

TOC извлечённого CD

Трек | Старт | Длительность | Начальный сектор | Конечный сектор
---------------------------------------------------------------------
1 | 0:00.00 | 3:45.57 | 0 | 16931
2 | 3:45.57 | 6:15.36 | 16932 | 45092
3 | 10:01.18 | 5:19.56 | 45093 | 69073
4 | 15:20.74 | 4:34.56 | 69074 | 89679
5 | 19:55.55 | 3:56.02 | 89680 | 107381
6 | 23:51.57 | 5:47.68 | 107382 | 133474
7 | 29:39.50 | 5:41.50 | 133475 | 159099
8 | 35:21.25 | 8:31.37 | 159100 | 197461

Характеристики диапазона извлечения и сообщения об ошибках

Выбранный диапазон

Имя файла E:\РАЗДАЧИ\Jeff Healey - Full Circle The Live Anthology\Live at the Hard Rock 1995\The Jeff Healey Band - Live at the Hard Rock 1995.wav

Пиковый уровень 83.8 %
Качество диапазона 100.0 %
CRC теста 72A1382F
CRC копии 72A1382F
Копирование... OK

Ошибок не произошло

AccurateRip: сводка

Трек 1 нет в базе данных
Трек 2 нет в базе данных
Трек 3 нет в базе данных
Трек 4 нет в базе данных
Трек 5 нет в базе данных
Трек 6 нет в базе данных
Трек 7 нет в базе данных
Трек 8 нет в базе данных

Ни одного трека нет в базе AccurateRip

Конец отчёта
Треклист
01. The Better It Gets [0:04:04.24]
02. I'm Tore Down [0:04:58.45]
03. My Little Girl [0:04:00.40]
04. Blue Jean Blues [0:11:39.25]
05. Confidence Man [0:04:08.72]
06. I Need To Be Loved [0:05:37.14]
07. When The Night Comes Falling From The Sky [0:07:54.68]
08. Angel Eyes [0:06:13.86]
09. Roadhouse Blues [0:12:43.73]
10. Hide Away [0:07:13.58]
11. That's What They Say [0:05:33.48]
Exact Audio Copy V0.99 prebeta 4 from 23. January 2008

Отчёт EAC об извлечении, выполненном 4. февраля 2012, 14:23

The Jeff Healey Band / Live At The Montreal Jazz Fest (1989)

Дисковод: Optiarc DVD RW AD-7173A Adapter: 0 ID: 1

Режим чтения : Достоверность
Использование точного потока : Да
Отключение кэша аудио : Да
Использование указателей C2 : Нет

Коррекция смещения при чтении : 48
Способность читать области Lead-in и Lead-out : Нет
Заполнение пропущенных сэмплов тишиной : Да
Удаление блоков с тишиной в начале и конце : Нет
При вычислениях CRC использовались нулевые сэмплы : Да
Интерфейс : Встроенный Win32-интерфейс для Win NT/2000

Выходной формат : Внутренние WAV-операции
Формат сэмплов : 44.100 Гц; 16 бит; стерео

TOC извлечённого CD

Трек | Старт | Длительность | Начальный сектор | Конечный сектор
---------------------------------------------------------------------
1 | 0:00.00 | 4:04.18 | 0 | 18317
2 | 4:04.18 | 4:58.34 | 18318 | 40701
3 | 9:02.52 | 4:00.30 | 40702 | 58731
4 | 13:03.07 | 11:39.19 | 58732 | 111175
5 | 24:42.26 | 4:08.54 | 111176 | 129829
6 | 28:51.05 | 5:37.11 | 129830 | 155115
7 | 34:28.16 | 7:54.51 | 155116 | 190716
8 | 42:22.67 | 6:13.65 | 190717 | 218756
9 | 48:36.57 | 12:43.55 | 218757 | 276036
10 | 61:20.37 | 7:13.44 | 276037 | 308555
11 | 68:34.06 | 5:33.36 | 308556 | 333566

Характеристики диапазона извлечения и сообщения об ошибках

Выбранный диапазон

Имя файла E:\РАЗДАЧИ\Jeff Healey - Full Circle The Live Anthology\Новая папка\The Jeff Healey Band - Live At The Montreal Jazz Fest (1989).wav

Пиковый уровень 100.0 %
Качество диапазона 100.0 %
CRC теста 5B7EF261
CRC копии 5B7EF261
Копирование... OK

Ошибок не произошло

AccurateRip: сводка

Трек 1 нет в базе данных
Трек 2 нет в базе данных
Трек 3 нет в базе данных
Трек 4 нет в базе данных
Трек 5 нет в базе данных
Трек 6 нет в базе данных
Трек 7 нет в базе данных
Трек 8 нет в базе данных
Трек 9 нет в базе данных
Трек 10 нет в базе данных
Трек 11 нет в базе данных

Ни одного трека нет в базе AccurateRip

Конец отчёта


Трекер:  [ 03-Мар-2012 18:48 ]

  

Скачать .torrent

Размер .torrent файла 12 KB


Размер: 1.06 GB
Хэш (hash) релиза: efb7bd71ab94067f05a47fe63fcb62994b87cff1

Еще никто не оставлял запись к записи скачать торрент The Jeff Healey Band Full Circle:The Live Antholog . Будь первым!

!Обратная связь