Скачать через торрент музыку Bryce Janey - Game Of Life - 2011, бесплатно без регистрации torrent

Если у вас наблюдаются проблемы со скриншотами, переходом по ссылками, скачиванием торрентов - проблемы в блокировщике рекламы AdBlock. #хорошегоДня!


Статистика раздачи
Размер:  428 MB   |    Зарегистрирован:  5 лет 7 месяцев   |    .torrent скачан:  40 раз   |   
Раздают:  1  
   
Загрузка...
 
Автор Сообщение

Umakiro

avatar Umakiro


Bryce Janey - Game Of Life

Жанр: Blues-Rock
Год издания диска: 2011
Аудиокодек: APE (*.ape)
Тип рипа: image+.cue
Битрейт аудио: lossless
Продолжительность: 55:43
Источник (релизер): CD
Наличие сканов в содержимом раздачи: да
Треклист:
01-Down Home Blues [0:05:20.64]
02-Kicked Like A Dog [0:05:36.64]
03-Waitin' For The Bus [0:04:18.64]
04-In Your Kitchen [0:05:07.64]
05-Game Of Life [0:06:18.64]
06-Come and Go Blues [0:05:49.64]
07-Going Down To The River [0:03:09.64]
08-Stone Cold And Crazy [0:03:46.64]
09-In The Mood [0:05:20.64]
10-Flying High On Your Love [0:04:16.64]
11-Faithfully [0:06:37.64]
  
Exact Audio Copy V0.99 prebeta 4 from 23. January 2008

Отчёт EAC об извлечении, выполненном 5. февраля 2012, 22:42

Bryce Janey / Game Of Life

Дисковод: Optiarc DVD RW AD-7173A Adapter: 0 ID: 1

Режим чтения : ДостоверностьИспользование точного потока : ДаОтключение кэша аудио : ДаИспользование указателей C2 : Нет

Коррекция смещения при чтении : 48Способность читать области Lead-in и Lead-out : НетЗаполнение пропущенных сэмплов тишиной : ДаУдаление блоков с тишиной в начале и конце : НетПри вычислениях CRC использовались нулевые сэмплы : ДаИнтерфейс : Встроенный Win32-интерфейс для Win NT/2000

Выходной формат : Внутренние WAV-операцииФормат сэмплов : 44.100 Гц; 16 бит; стерео

TOC извлечённого CD

Трек | Старт | Длительность | Начальный сектор | Конечный сектор --------------------------------------------------------------------- 1 | 0:00.00 | 5:20.48 | 0 | 24047 2 | 5:20.48 | 5:36.48 | 24048 | 49295 3 | 10:57.21 | 4:18.48 | 49296 | 68693 4 | 15:15.69 | 5:07.48 | 68694 | 91766 5 | 20:23.42 | 6:18.48 | 91767 | 120164 6 | 26:42.15 | 5:49.48 | 120165 | 146387 7 | 32:31.63 | 3:09.48 | 146388 | 160610 8 | 35:41.36 | 3:46.48 | 160611 | 177608 9 | 39:28.09 | 5:20.48 | 177609 | 201656 10 | 44:48.57 | 4:16.48 | 201657 | 220904 11 | 49:05.30 | 6:37.48 | 220905 | 250727

Характеристики диапазона извлечения и сообщения об ошибках

Выбранный диапазон

Имя файла E:\РАЗДАЧИ\Bryce Janey - Game Of Life\Bryce Janey - Game Of Life.wav

Пиковый уровень 98.9 % Качество диапазона 100.0 % CRC теста F8BB6388 CRC копии F8BB6388 Копирование... OK

Ошибок не произошло

AccurateRip: сводка

Трек 1 нет в базе данныхТрек 2 нет в базе данныхТрек 3 нет в базе данныхТрек 4 нет в базе данныхТрек 5 нет в базе данныхТрек 6 нет в базе данныхТрек 7 нет в базе данныхТрек 8 нет в базе данныхТрек 9 нет в базе данныхТрек 10 нет в базе данныхТрек 11 нет в базе данных

Ни одного трека нет в базе AccurateRip

Конец отчёта


Трекер:  [ 03-Мар-2012 18:48 ]

  

Скачать .torrent

Размер .torrent файла 17 KB


Размер: 428 MB
Хэш (hash) релиза: 3929f6fd249ecd86cecc8a9e8e021f04678f1141

Еще никто не оставлял запись к записи скачать торрент Bryce Janey - Game Of Life - 2011, . Будь первым!

!Обратная связь