Скачать через торрент музыку Albert Castiglia - Burn - 2002, бесплатно без регистрации torrent

Если у вас наблюдаются проблемы со скриншотами, переходом по ссылками, скачиванием торрентов - проблемы в блокировщике рекламы AdBlock. #хорошегоДня!


Статистика раздачи
Размер:  347 MB   |    Зарегистрирован:  5 лет 7 месяцев   |    .torrent скачан:  36 раз   |   
Раздают:  1  
   
Загрузка...
 
Автор Сообщение

Umakiro

avatar Umakiro


Albert Castiglia - Burn

Жанр: Blues
Год издания диска: 2002
Аудиокодек: APE (*.ape)
Тип рипа: image+.cue
Битрейт аудио: lossless
Продолжительность: 51:36
Источник (релизер): CD
Наличие сканов в содержимом раздачи: да
Треклист:
1. I Didn't Know [0:03:36.06]
02. Since You've Been Gone [0:05:05.88]
03. Burn [0:04:39.17]
04. Can't Be Satisfied [0:02:40.90]
05. Teasing The Trains [0:03:15.46]
06. No One To Blame [0:03:36.98]
07. Take Me With You When You Go [0:04:27.05]
08. The Day The Old Man Died [0:05:00.81]
09. Closing Time [0:04:05.49]
10. Cadillac Assembly Live (Live) [0:05:18.86]
11. Hoodoo Man Blues (Live) [0:09:49.66]
  
Exact Audio Copy V0.99 prebeta 4 from 23. January 2008

Отчёт EAC об извлечении, выполненном 10. февраля 2012, 10:38

Albert Castiglia / Burn

Дисковод: Optiarc DVD RW AD-7173A Adapter: 0 ID: 1

Режим чтения : ДостоверностьИспользование точного потока : ДаОтключение кэша аудио : ДаИспользование указателей C2 : Нет

Коррекция смещения при чтении : 48Способность читать области Lead-in и Lead-out : НетЗаполнение пропущенных сэмплов тишиной : ДаУдаление блоков с тишиной в начале и конце : НетПри вычислениях CRC использовались нулевые сэмплы : ДаИнтерфейс : Встроенный Win32-интерфейс для Win NT/2000

Выходной формат : Внутренние WAV-операцииФормат сэмплов : 44.100 Гц; 16 бит; стерео

TOC извлечённого CD

Трек | Старт | Длительность | Начальный сектор | Конечный сектор --------------------------------------------------------------------- 1 | 0:00.00 | 3:36.05 | 0 | 16204 2 | 3:36.05 | 5:05.66 | 16205 | 39145 3 | 8:41.71 | 4:39.13 | 39146 | 60083 4 | 13:21.09 | 2:40.68 | 60084 | 72151 5 | 16:02.02 | 3:15.35 | 72152 | 86811 6 | 19:17.37 | 3:36.74 | 86812 | 103085 7 | 22:54.36 | 4:27.04 | 103086 | 123114 8 | 27:21.40 | 5:00.61 | 123115 | 145675 9 | 32:22.26 | 4:05.37 | 145676 | 164087 10 | 36:27.63 | 5:18.65 | 164088 | 188002 11 | 41:46.53 | 9:49.50 | 188003 | 232227

Характеристики диапазона извлечения и сообщения об ошибках

Выбранный диапазон

Имя файла E:\РАЗДАЧИ\Albert Castiglia - Burn\Albert Castiglia - Burn.wav

Пиковый уровень 100.0 % Качество диапазона 100.0 % CRC теста 2947F3B2 CRC копии 2947F3B2 Копирование... OK

Ошибок не произошло

AccurateRip: сводка

Трек 1 нет в базе данныхТрек 2 нет в базе данныхТрек 3 нет в базе данныхТрек 4 нет в базе данныхТрек 5 нет в базе данныхТрек 6 нет в базе данныхТрек 7 нет в базе данныхТрек 8 нет в базе данныхТрек 9 нет в базе данныхТрек 10 нет в базе данныхТрек 11 нет в базе данных

Ни одного трека нет в базе AccurateRip

Конец отчёта


Трекер:  [ 03-Мар-2012 18:48 ]

  

Скачать .torrent

Размер .torrent файла 14 KB


Размер: 347 MB
Хэш (hash) релиза: 143b0ba1dd80fe923ee33c048a39b6d8204ad918

Еще никто не оставлял запись к записи скачать торрент Albert Castiglia - Burn - 2002, . Будь первым!

!Обратная связь