Скачать через торрент музыку Roger Cotton - A Long Way Back - 2008, бесплатно без регистрации torrent

Если у вас наблюдаются проблемы со скриншотами, переходом по ссылками, скачиванием торрентов - проблемы в блокировщике рекламы AdBlock. #хорошегоДня!


Статистика раздачи
Размер:  487 MB   |    Зарегистрирован:  5 лет 7 месяцев   |    .torrent скачан:  38 раз   |   
Раздают:  1  
   
Загрузка...
 
Автор Сообщение

Umakiro

avatar Umakiro


Roger Cotton - A Long Way Back

Жанр: Blues
Год издания диска: 2008
Аудиокодек: APE (*.ape)
Тип рипа: image+.cue
Битрейт аудио: lossless
Продолжительность: 1:06:37
Источник (релизер): пиратка (CD)
Наличие сканов в содержимом раздачи: да
Треклист:
01. Nice Girl Like You [0:04:28.80]
02. No Time For You [0:02:43.62]
03. Real World [0:05:34.00]
04. Nothin Gonna Change [0:03:31.06]
05. I Cant Change [0:05:00.41]
06. Dangerous Man [0:03:54.37]
07. Monday Monday [0:04:53.17]
08. A Day In New York [0:09:45.34]
09. A Long Way Back [0:04:23.04]
10. Im Already Gone [0:04:23.14]
11. Private Number [0:04:52.22]
12. The Mission [0:04:33.88]
13. Downtown Manhattan [0:01:57.33]
14. Shes The Wild Wind [0:04:13.22]
15. Dreams of Flying Away [0:02:23.84]
  
Exact Audio Copy V0.99 prebeta 4 from 23. January 2008

Отчёт EAC об извлечении, выполненном 19. февраля 2012, 22:18

Roger Cotton / A Long Way Back

Дисковод: Optiarc DVD RW AD-7173A Adapter: 0 ID: 1

Режим чтения : ДостоверностьИспользование точного потока : ДаОтключение кэша аудио : ДаИспользование указателей C2 : Нет

Коррекция смещения при чтении : 48Способность читать области Lead-in и Lead-out : НетЗаполнение пропущенных сэмплов тишиной : ДаУдаление блоков с тишиной в начале и конце : НетПри вычислениях CRC использовались нулевые сэмплы : ДаИнтерфейс : Встроенный Win32-интерфейс для Win NT/2000

Выходной формат : Внутренние WAV-операцииФормат сэмплов : 44.100 Гц; 16 бит; стерео

TOC извлечённого CD

Трек | Старт | Длительность | Начальный сектор | Конечный сектор --------------------------------------------------------------------- 1 | 0:00.00 | 4:28.60 | 0 | 20159 2 | 4:28.60 | 2:43.47 | 20160 | 32431 3 | 7:12.32 | 5:34.00 | 32432 | 57481 4 | 12:46.32 | 3:31.05 | 57482 | 73311 5 | 16:17.37 | 5:00.31 | 73312 | 95842 6 | 21:17.68 | 3:54.28 | 95843 | 113420 7 | 25:12.21 | 4:53.13 | 113421 | 135408 8 | 30:05.34 | 9:45.26 | 135409 | 179309 9 | 39:50.60 | 4:23.03 | 179310 | 199037 10 | 44:13.63 | 4:23.11 | 199038 | 218773 11 | 48:36.74 | 4:52.17 | 218774 | 240690 12 | 53:29.16 | 4:33.66 | 240691 | 261231 13 | 58:03.07 | 1:57.25 | 261232 | 270031 14 | 60:00.32 | 4:13.17 | 270032 | 289023 15 | 64:13.49 | 2:23.63 | 289024 | 299811

Характеристики диапазона извлечения и сообщения об ошибках

Выбранный диапазон

Имя файла E:\РАЗДАЧИ\Roger Cotton - A Long Way Back\Roger Cotton - A Long Way Back.wav

Пиковый уровень 100.0 % Качество диапазона 100.0 % CRC теста AFE3D1D9 CRC копии AFE3D1D9 Копирование... OK

Ошибок не произошло

AccurateRip: сводка

Трек 1 нет в базе данныхТрек 2 нет в базе данныхТрек 3 нет в базе данныхТрек 4 нет в базе данныхТрек 5 нет в базе данныхТрек 6 нет в базе данныхТрек 7 нет в базе данныхТрек 8 нет в базе данныхТрек 9 нет в базе данныхТрек 10 нет в базе данныхТрек 11 нет в базе данныхТрек 12 нет в базе данныхТрек 13 нет в базе данныхТрек 14 нет в базе данныхТрек 15 нет в базе данных

Ни одного трека нет в базе AccurateRip

Конец отчёта
Papa George
Buddy Whittington
Marcus Malone
Paul Cox
Val Cowell
Fay Hallon
Alan Glen


Трекер:  [ 03-Мар-2012 18:47 ]

  

Скачать .torrent

Размер .torrent файла 20 KB


Размер: 487 MB
Хэш (hash) релиза: f995e9555c51aca80a8716aa50ebdc65f7e683a3

Еще никто не оставлял запись к записи скачать торрент Roger Cotton - A Long Way Back - 2008, . Будь первым!

!Обратная связь