Скачать через торрент музыку Terry Quiett Band - Just My Luck - 2011, бесплатно без регистрации torrent

Если у вас наблюдаются проблемы со скриншотами, переходом по ссылками, скачиванием торрентов - проблемы в блокировщике рекламы AdBlock. #хорошегоДня!


Статистика раздачи
Размер:  337 MB   |    Зарегистрирован:  5 лет 7 месяцев   |    .torrent скачан:  38 раз   |   
Раздают:  1  
   
Загрузка...
 
Автор Сообщение

Umakiro

avatar Umakiro


Terry Quiett Band - Just My Luck

Жанр: Blues/Rock
Год издания диска: 2011
Аудиокодек: APE (*.ape)
Тип рипа: image+.cue
Битрейт аудио: lossless
Продолжительность: 49:53
Источник (релизер): pirat CD
Наличие сканов в содержимом раздачи: да
Треклист:
01. Karma [0:04:23.05]
02. Work for It [0:03:17.50]
03. You re My Kind [0:03:34.45]
04. Big Man Boogie [0:02:43.85]
05. Getting Through to Me [0:03:12.21]
06. Judgment Day [0:03:41.81]
07. The Woodsman [0:03:38.78]
08. Pound of Flesh [0:04:42.94]
09. Some People [0:03:46.29]
10. Signs of Decline [0:04:05.40]
11. Satisfied [0:03:39.61]
12. Fool s Gold [0:04:51.36]
13. Close to You [0:04:15.84]
  
Exact Audio Copy V0.99 prebeta 4 from 23. January 2008

Отчёт EAC об извлечении, выполненном 19. февраля 2012, 20:43

Terry Quiett Band / Just My Luck

Дисковод: Optiarc DVD RW AD-7173A Adapter: 0 ID: 1

Режим чтения : ДостоверностьИспользование точного потока : ДаОтключение кэша аудио : ДаИспользование указателей C2 : Нет

Коррекция смещения при чтении : 48Способность читать области Lead-in и Lead-out : НетЗаполнение пропущенных сэмплов тишиной : ДаУдаление блоков с тишиной в начале и конце : НетПри вычислениях CRC использовались нулевые сэмплы : ДаИнтерфейс : Встроенный Win32-интерфейс для Win NT/2000

Выходной формат : Внутренние WAV-операцииФормат сэмплов : 44.100 Гц; 16 бит; стерео

TOC извлечённого CD

Трек | Старт | Длительность | Начальный сектор | Конечный сектор --------------------------------------------------------------------- 1 | 0:00.00 | 4:23.04 | 0 | 19728 2 | 4:23.04 | 3:17.38 | 19729 | 34541 3 | 7:40.42 | 3:34.34 | 34542 | 50625 4 | 11:15.01 | 2:43.64 | 50626 | 62914 5 | 13:58.65 | 3:12.16 | 62915 | 77330 6 | 17:11.06 | 3:41.61 | 77331 | 93966 7 | 20:52.67 | 3:38.59 | 93967 | 110375 8 | 24:31.51 | 4:42.71 | 110376 | 131596 9 | 29:14.47 | 3:46.22 | 131597 | 148568 10 | 33:00.69 | 4:05.30 | 148569 | 166973 11 | 37:06.24 | 3:39.46 | 166974 | 183444 12 | 40:45.70 | 4:51.27 | 183445 | 205296 13 | 45:37.22 | 4:15.63 | 205297 | 224484

Характеристики диапазона извлечения и сообщения об ошибках

Выбранный диапазон

Имя файла E:\РАЗДАЧИ\Terry Quiett Band - Just My Luck\Terry Quiett Band - Just My Luck.wav

Пиковый уровень 95.1 % Качество диапазона 100.0 % CRC теста 6F0A2C1A CRC копии 6F0A2C1A Копирование... OK

Ошибок не произошло

AccurateRip: сводка

Трек 1 нет в базе данныхТрек 2 нет в базе данныхТрек 3 нет в базе данныхТрек 4 нет в базе данныхТрек 5 нет в базе данныхТрек 6 нет в базе данныхТрек 7 нет в базе данныхТрек 8 нет в базе данныхТрек 9 нет в базе данныхТрек 10 нет в базе данныхТрек 11 нет в базе данныхТрек 12 нет в базе данныхТрек 13 нет в базе данных

Ни одного трека нет в базе AccurateRip

Конец отчёта


Трекер:  [ 03-Мар-2012 18:46 ]

  

Скачать .torrent

Размер .torrent файла 14 KB


Размер: 337 MB
Хэш (hash) релиза: 2c89765efabaf2a4c2a34dd072b8e19dd844d63e

Еще никто не оставлял запись к записи скачать торрент Terry Quiett Band - Just My Luck - 2011, . Будь первым!

!Обратная связь