Скачать через торрент музыку Mark May Band - Release My Soul - 2011, бесплатно без регистрации torrent

Если у вас наблюдаются проблемы со скриншотами, переходом по ссылками, скачиванием торрентов - проблемы в блокировщике рекламы AdBlock. #хорошегоДня!


Статистика раздачи
Размер:  444 MB   |    Зарегистрирован:  5 лет 7 месяцев   |    .torrent скачан:  43 раза   |   
Раздают:  1  
   
Загрузка...
 
Автор Сообщение

Umakiro

avatar Umakiro


Mark May Band - Release My Soul

Жанр: Blues
Год издания диска: 2011
Аудиокодек: APE (*.ape)
Тип рипа: image+.cue
Битрейт аудио: lossless
Продолжительность: 1:06:21
Источник (релизер): pirat CD
Наличие сканов в содержимом раздачи: да
Треклист:
01. Six Strings or Two Legs [0:06:28.48]
02. Move On [0:05:15.81]
03. I Gotta Know [0:06:23.36]
04. Eyes of India [0:06:35.49]
05. Release My Soul [0:07:02.04]
06. World of Suffering [0:07:13.25]
07. Drifter [0:05:52.58]
08. Vindablues [0:06:56.53]
09. Devils Playpen [0:06:02.89]
10. She Don't Shine [0:06:30.50]
11. Sweet D [0:02:00.01]
  
Exact Audio Copy V0.99 prebeta 4 from 23. January 2008

Отчёт EAC об извлечении, выполненном 20. февраля 2012, 0:11

Mark May Band / Release My Soul

Дисковод: Optiarc DVD RW AD-7173A Adapter: 0 ID: 1

Режим чтения : ДостоверностьИспользование точного потока : ДаОтключение кэша аудио : ДаИспользование указателей C2 : Нет

Коррекция смещения при чтении : 48Способность читать области Lead-in и Lead-out : НетЗаполнение пропущенных сэмплов тишиной : ДаУдаление блоков с тишиной в начале и конце : НетПри вычислениях CRC использовались нулевые сэмплы : ДаИнтерфейс : Встроенный Win32-интерфейс для Win NT/2000

Выходной формат : Внутренние WAV-операцииФормат сэмплов : 44.100 Гц; 16 бит; стерео

TOC извлечённого CD

Трек | Старт | Длительность | Начальный сектор | Конечный сектор --------------------------------------------------------------------- 1 | 0:00.00 | 6:28.36 | 0 | 29135 2 | 6:28.36 | 5:15.61 | 29136 | 52821 3 | 11:44.22 | 6:23.27 | 52822 | 81573 4 | 18:07.49 | 6:35.37 | 81574 | 111235 5 | 24:43.11 | 7:02.03 | 111236 | 142888 6 | 31:45.14 | 7:13.19 | 142889 | 175382 7 | 38:58.33 | 5:52.44 | 175383 | 201826 8 | 44:51.02 | 6:56.40 | 201827 | 233066 9 | 51:47.42 | 6:02.67 | 233067 | 260283 10 | 57:50.34 | 6:30.38 | 260284 | 289571 11 | 64:20.72 | 2:00.01 | 289572 | 298572

Характеристики диапазона извлечения и сообщения об ошибках

Выбранный диапазон

Имя файла E:\РАЗДАЧИ\Mark May Band - Release My Soul\Mark May Band - Release My Soul.wav

Пиковый уровень 96.6 % Качество диапазона 100.0 % CRC теста 037C8C90 CRC копии 037C8C90 Копирование... OK

Ошибок не произошло

AccurateRip: сводка

Трек 1 нет в базе данныхТрек 2 нет в базе данныхТрек 3 нет в базе данныхТрек 4 нет в базе данныхТрек 5 нет в базе данныхТрек 6 нет в базе данныхТрек 7 нет в базе данныхТрек 8 нет в базе данныхТрек 9 нет в базе данныхТрек 10 нет в базе данныхТрек 11 нет в базе данных

Ни одного трека нет в базе AccurateRip

Конец отчёта


Трекер:  [ 03-Мар-2012 18:46 ]

  

Скачать .torrent

Размер .torrent файла 18 KB


Размер: 444 MB
Хэш (hash) релиза: af645a3f2d4e5e6fc788c87eb637dca6b6ca00e8

Еще никто не оставлял запись к записи скачать торрент Mark May Band - Release My Soul - 2011, . Будь первым!

!Обратная связь