Скачать через торрент музыку Fatt Cat Freddie - Crusin For A Bluesin - 1999, бесплатно без регистрации torrent

Если у вас наблюдаются проблемы со скриншотами, переходом по ссылками, скачиванием торрентов - проблемы в блокировщике рекламы AdBlock. #хорошегоДня!


Статистика раздачи
Размер:  367 MB   |    Зарегистрирован:  5 лет 7 месяцев   |    .torrent скачан:  42 раза   |   
Раздают:  1  
   
Загрузка...
 
Автор Сообщение

Umakiro

avatar Umakiro


Fatt Cat Freddie - Crusin' For A Bluesin'

Жанр: Modern Electric Blues
Год издания диска: 1999
Аудиокодек: APE (*.ape)
Тип рипа: image+.cue
Битрейт аудио: lossless
Продолжительность: 51:31
Источник (релизер): CD
Наличие сканов в содержимом раздачи: да
Треклист:
01. Sufferin' Blues [0:04:40.50]
02. Black 'N' Bluein' [0:03:17.45]
03. Dealer's Gold [0:04:15.42]
04. Dangerous With You [0:03:47.28]
05. All Over You [0:03:22.70]
06. Moanin' And Groanin' [0:03:51.60]
07. Downtown Blues [0:05:23.26]
08. Sneakin' Around [0:04:37.33]
09. Crusin' For A Bluesin' [0:04:47.81]
10. Best Thing I Ever Had [0:03:56.50]
11. I Don't Know (What I'm Gonna Do About It) [0:03:08.41]
12. Take These Blues [0:06:22.92]
  
Exact Audio Copy V0.99 prebeta 4 from 23. January 2008

Отчёт EAC об извлечении, выполненном 20. апреля 2011, 23:47

Fatt Catt Freddie / Crusin' For A Bluesin'

Дисковод: PIONEER DVD-RW DVR-118L Adapter: 0 ID: 0

Режим чтения : ДостоверностьИспользование точного потока : ДаОтключение кэша аудио : ДаИспользование указателей C2 : Нет

Коррекция смещения при чтении : 6Способность читать области Lead-in и Lead-out : НетЗаполнение пропущенных сэмплов тишиной : ДаУдаление блоков с тишиной в начале и конце : НетПри вычислениях CRC использовались нулевые сэмплы : ДаИнтерфейс : Встроенный Win32-интерфейс для Win NT/2000

Выходной формат : Внутренние WAV-операцииФормат сэмплов : 44.100 Гц; 16 бит; стерео

TOC извлечённого CD

Трек | Старт | Длительность | Начальный сектор | Конечный сектор --------------------------------------------------------------------- 1 | 0:00.00 | 4:40.38 | 0 | 21037 2 | 4:40.38 | 3:17.34 | 21038 | 35846 3 | 7:57.72 | 4:15.32 | 35847 | 55003 4 | 12:13.29 | 3:47.21 | 55004 | 72049 5 | 16:00.50 | 3:22.53 | 72050 | 87252 6 | 19:23.28 | 3:51.45 | 87253 | 104622 7 | 23:14.73 | 5:23.20 | 104623 | 128867 8 | 28:38.18 | 4:37.25 | 128868 | 149667 9 | 33:15.43 | 4:47.61 | 149668 | 171253 10 | 38:03.29 | 3:56.38 | 171254 | 188991 11 | 41:59.67 | 3:08.31 | 188992 | 203122 12 | 45:08.23 | 6:22.69 | 203123 | 231841

Характеристики диапазона извлечения и сообщения об ошибках

Выбранный диапазон

Имя файла D:\КОЛЛЕКЦИЯ 11\Новая папка (12)\Fatt Catt Freddie - Crusin' For A Bluesin'.wav

Пиковый уровень 99.9 % Качество диапазона 100.0 % CRC теста 2BEFB3A3 CRC копии 2BEFB3A3 Копирование... OK

Ошибок не произошло

AccurateRip: сводка

Трек 1 нет в базе данныхТрек 2 нет в базе данныхТрек 3 нет в базе данныхТрек 4 нет в базе данныхТрек 5 нет в базе данныхТрек 6 нет в базе данныхТрек 7 нет в базе данныхТрек 8 нет в базе данныхТрек 9 нет в базе данныхТрек 10 нет в базе данныхТрек 11 нет в базе данныхТрек 12 нет в базе данных

Ни одного трека нет в базе AccurateRip

Конец отчёта


Трекер:  [ 03-Мар-2012 18:46 ]

  

Скачать .torrent

Размер .torrent файла 15 KB


Размер: 367 MB
Хэш (hash) релиза: f00731de791165d5a75e2bdd9b74f4cc90abfbf6

Еще никто не оставлял запись к записи скачать торрент Fatt Cat Freddie - Crusin For A Bluesin - 1999, . Будь первым!

!Обратная связь