Скачать через торрент музыку Texas Slim - Lucky Mojo - 2011, бесплатно без регистрации torrent

Если у вас наблюдаются проблемы со скриншотами, переходом по ссылками, скачиванием торрентов - проблемы в блокировщике рекламы AdBlock. #хорошегоДня!


Статистика раздачи
Размер:  527 MB   |    Зарегистрирован:  5 лет 7 месяцев   |    .torrent скачан:  35 раз   |   
Раздают:  1  
   
Загрузка...
 
Автор Сообщение

Umakiro

avatar Umakiro


Texas Slim - Lucky Mojo

Жанр: Blues Texas Stile
Год издания диска: 2011
Аудиокодек: APE (*.ape)
Тип рипа: image+.cue
Битрейт аудио: lossless
Продолжительность: 1:09:52
Источник (релизер): CD
Наличие сканов в содержимом раздачи: да
Треклист:
01. Coffee Grindin' Mama [0:06:34.69]
02. Me and My Woman [0:04:55.28]
03. Just Dance [0:04:43.01]
04. She's Gonna Leave Me [0:03:13.65]
05. Lucky Mojo [0:03:58.30]
06. She's Coming Home [0:02:55.44]
07. Play It Cool [0:08:07.73]
08. Hello Everybody [0:05:35.65]
09. Blue Down to the Bone [0:04:01.86]
10. In the Ghetto [0:04:03.00]
11. Coming Home [0:03:32.29]
12. Hoy Hoy [0:03:43.49]
13. Sunny Roads Blues [0:03:53.29]
14. Drunk In Milano [0:04:20.60]
15. T&A Boogie [0:06:13.82]
  
Exact Audio Copy V0.99 prebeta 4 from 23. January 2008

Отчёт EAC об извлечении, выполненном 6. февраля 2012, 18:47

Texas Slim / Lucky Mojo

Дисковод: Optiarc DVD RW AD-7173A Adapter: 0 ID: 1

Режим чтения : ДостоверностьИспользование точного потока : ДаОтключение кэша аудио : ДаИспользование указателей C2 : Нет

Коррекция смещения при чтении : 48Способность читать области Lead-in и Lead-out : НетЗаполнение пропущенных сэмплов тишиной : ДаУдаление блоков с тишиной в начале и конце : НетПри вычислениях CRC использовались нулевые сэмплы : ДаИнтерфейс : Встроенный Win32-интерфейс для Win NT/2000

Выходной формат : Внутренние WAV-операцииФормат сэмплов : 44.100 Гц; 16 бит; стерео

TOC извлечённого CD

Трек | Старт | Длительность | Начальный сектор | Конечный сектор --------------------------------------------------------------------- 1 | 0:00.00 | 6:34.52 | 0 | 29601 2 | 6:34.52 | 4:55.21 | 29602 | 51747 3 | 11:29.73 | 4:43.01 | 51748 | 72973 4 | 16:12.74 | 3:13.49 | 72974 | 87497 5 | 19:26.48 | 3:58.23 | 87498 | 105370 6 | 23:24.71 | 2:55.33 | 105371 | 118528 7 | 26:20.29 | 8:07.55 | 118529 | 155108 8 | 34:28.09 | 5:35.49 | 155109 | 180282 9 | 40:03.58 | 4:01.65 | 180283 | 198422 10 | 44:05.48 | 4:03.00 | 198423 | 216647 11 | 48:08.48 | 3:32.22 | 216648 | 232569 12 | 51:40.70 | 3:43.37 | 232570 | 249331 13 | 55:24.32 | 3:53.22 | 249332 | 266828 14 | 59:17.54 | 4:20.45 | 266829 | 286373 15 | 63:38.24 | 6:13.62 | 286374 | 314410

Характеристики диапазона извлечения и сообщения об ошибках

Выбранный диапазон

Имя файла D:\КОЛЛЕКЦИЯ 00\Новая папка\Texas Slim - Lucky Mojo.wav

Пиковый уровень 100.0 % Качество диапазона 99.9 % CRC теста 3A450409 CRC копии 3A450409 Копирование... OK

Ошибок не произошло

AccurateRip: сводка

Трек 1 нет в базе данныхТрек 2 нет в базе данныхТрек 3 нет в базе данныхТрек 4 нет в базе данныхТрек 5 нет в базе данныхТрек 6 нет в базе данныхТрек 7 нет в базе данныхТрек 8 нет в базе данныхТрек 9 нет в базе данныхТрек 10 нет в базе данныхТрек 11 нет в базе данныхТрек 12 нет в базе данныхТрек 13 нет в базе данныхТрек 14 нет в базе данныхТрек 15 нет в базе данных

Ни одного трека нет в базе AccurateRip

Конец отчёта


Трекер:  [ 03-Мар-2012 18:46 ]

  

Скачать .torrent

Размер .torrent файла 11 KB


Размер: 527 MB
Хэш (hash) релиза: 62634a2f8e7134b72130effb6feecf57b141be46

Еще никто не оставлял запись к записи скачать торрент Texas Slim - Lucky Mojo - 2011, . Будь первым!

!Обратная связь