Скачать через торрент музыку Professor Longhair - Big Chief - 1993, бесплатно без регистрации torrent

Если у вас наблюдаются проблемы со скриншотами, переходом по ссылками, скачиванием торрентов - проблемы в блокировщике рекламы AdBlock. #хорошегоДня!


Статистика раздачи
Размер:  312 MB   |    Зарегистрирован:  5 лет 7 месяцев   |    .torrent скачан:  53 раза   |   
Раздают:  1  
   
Загрузка...
 
Автор Сообщение

Umakiro

avatar Umakiro


Professor Longhair - Big Chief

Жанр: Blues, New Orleans Blues, Piano Blues
Год издания диска: 1993
Аудиокодек: APE (*.ape)
Тип рипа: image+.cue
Битрейт аудио: lossless
Продолжительность: 56:20
Источник (релизер): CD
Наличие сканов в содержимом раздачи: да
Треклист:
01. Big Chief [0:03:53.80]
02. Hey Little Girl [0:03:09.53]
03. How Long Has That Train Been Gone [0:03:49.77]
04. I'm Movin On [0:04:09.80]
05. Mess Around [0:03:32.36]
06. Medley: She Walks Right In/Shake, Ratle & Roll/Sick And Tired [0:06:45.66]
07. Tipitina [0:03:58.97]
08. Little Blues [0:01:39.89]
09. Her Mind Is Gone [0:04:34.57]
10. Stagger Lee [0:05:04.29]
11. I've Got My Mojo Working [0:04:42.00]
12. Rum & Coca-Cola [0:02:03.26]
13. Mardi Gras In New Orleans [0:02:54.00]
14. Doin' It [0:06:02.06]
  
Exact Audio Copy V0.99 prebeta 4 from 23. January 2008

Отчёт EAC об извлечении, выполненном 25. января 2012, 9:38

Professor Longhair / Big Chief

Дисковод: Optiarc DVD RW AD-7173A Adapter: 0 ID: 1

Режим чтения : ДостоверностьИспользование точного потока : ДаОтключение кэша аудио : ДаИспользование указателей C2 : Нет

Коррекция смещения при чтении : 48Способность читать области Lead-in и Lead-out : НетЗаполнение пропущенных сэмплов тишиной : ДаУдаление блоков с тишиной в начале и конце : НетПри вычислениях CRC использовались нулевые сэмплы : ДаИнтерфейс : Встроенный Win32-интерфейс для Win NT/2000

Выходной формат : Внутренние WAV-операцииФормат сэмплов : 44.100 Гц; 16 бит; стерео

TOC извлечённого CD

Трек | Старт | Длительность | Начальный сектор | Конечный сектор --------------------------------------------------------------------- 1 | 0:00.32 | 3:53.60 | 32 | 17566 2 | 3:54.17 | 3:09.40 | 17567 | 31781 3 | 7:03.57 | 3:49.58 | 31782 | 49014 4 | 10:53.40 | 4:09.60 | 49015 | 67749 5 | 15:03.25 | 3:32.27 | 67750 | 83676 6 | 18:35.52 | 6:45.50 | 83677 | 114101 7 | 25:21.27 | 3:58.73 | 114102 | 132024 8 | 29:20.25 | 1:39.67 | 132025 | 139516 9 | 31:00.17 | 4:34.43 | 139517 | 160109 10 | 35:34.60 | 5:04.22 | 160110 | 182931 11 | 40:39.07 | 4:42.00 | 182932 | 204081 12 | 45:21.07 | 2:03.20 | 204082 | 213326 13 | 47:24.27 | 2:54.00 | 213327 | 226376 14 | 50:18.27 | 6:02.05 | 226377 | 253531

Характеристики диапазона извлечения и сообщения об ошибках

Выбранный диапазон

Имя файла D:\КОЛЛЕКЦИЯ 00\Новая папка (10)\Professor Longhair - Big Chief.wav

Пиковый уровень 99.7 % Качество диапазона 99.9 % CRC теста E749995D CRC копии E749995D Копирование... OK

Ошибок не произошло

AccurateRip: сводка

Трек 1 точное извлечение (доверие 4) [8AEF3DC4]Трек 2 точное извлечение (доверие 5) [90D64533]Трек 3 точное извлечение (доверие 5) [FF77FC69]Трек 4 точное извлечение (доверие 5) [C77F0F1D]Трек 5 точное извлечение (доверие 4) [7440C620]Трек 6 точное извлечение (доверие 4) [0644FD5A]Трек 7 точное извлечение (доверие 5) [F39ABE4F]Трек 8 точное извлечение (доверие 6) [C7424AC5]Трек 9 точное извлечение (доверие 5) [BECD1CCA]Трек 10 точное извлечение (доверие 4) [9E99662D]Трек 11 точное извлечение (доверие 4) [EA8C25E3]Трек 12 точное извлечение (доверие 5) [FB35BADA]Трек 13 точное извлечение (доверие 5) [62BDC9EA]Трек 14 точное извлечение (доверие 4) [0D914BCD]

Все треки извлечены точно

Конец отчёта


Трекер:  [ 03-Мар-2012 18:45 ]

  

Скачать .torrent

Размер .torrent файла 13 KB


Размер: 312 MB
Хэш (hash) релиза: 11047555a3a54ec4a4f8b311cbe86a6e0ac8d689

Еще никто не оставлял запись к записи скачать торрент Professor Longhair - Big Chief - 1993, . Будь первым!

!Обратная связь