Скачать через торрент музыку Beverly "Guitar" Watkins - Back in Business - 1999, бесплатно без регистрации torrent

Если у вас наблюдаются проблемы со скриншотами, переходом по ссылками, скачиванием торрентов - проблемы в блокировщике рекламы AdBlock. #хорошегоДня!


Статистика раздачи
Размер:  322 MB   |    Зарегистрирован:  5 лет 7 месяцев   |    .torrent скачан:  59 раз   |   
Раздают:  1  
   
Загрузка...
 
Автор Сообщение

Umakiro

avatar Umakiro


Beverly "Guitar" Watkins - Back in Business

Жанр: Blues
Год издания диска: 1999
Аудиокодек: APE (*.ape)
Тип рипа: image+.cue
Битрейт аудио: lossless
Продолжительность: 47:48
Источник (релизер): CD
Наличие сканов в содержимом раздачи: да
Треклист:
01. Miz Dr. Feelgood [0:04:21.73]
02. I'm Gonna Rock Some More [0:02:55.84]
03. Tell Me Daddy [0:03:46.93]
04. My Baby Left Town [0:03:22.53]
05. Right String But Wrong Yo-Yo [0:02:30.66]
06. Impeach Me Baby [0:04:09.53]
07. Red Mama Blues [0:06:31.86]
08. You Make Me Feel So Good [0:03:51.46]
09. Too Many Times [0:03:37.60]
10. Blue In The Night [0:04:13.00]
11. What About Me [0:03:36.89]
12. Back In Business [0:04:49.57]
  
Exact Audio Copy V0.99 prebeta 4 from 23. January 2008

Отчёт EAC об извлечении, выполненном 24. января 2012, 1:50

Beverly "Guitar" Watkins / Backin Business

Дисковод: Optiarc DVD RW AD-7173A Adapter: 0 ID: 1

Режим чтения : ДостоверностьИспользование точного потока : ДаОтключение кэша аудио : ДаИспользование указателей C2 : Нет

Коррекция смещения при чтении : 48Способность читать области Lead-in и Lead-out : НетЗаполнение пропущенных сэмплов тишиной : ДаУдаление блоков с тишиной в начале и конце : НетПри вычислениях CRC использовались нулевые сэмплы : ДаИнтерфейс : Встроенный Win32-интерфейс для Win NT/2000

Выходной формат : Внутренние WAV-операцииФормат сэмплов : 44.100 Гц; 16 бит; стерео

TOC извлечённого CD

Трек | Старт | Длительность | Начальный сектор | Конечный сектор --------------------------------------------------------------------- 1 | 0:00.32 | 4:21.55 | 32 | 19661 2 | 4:22.12 | 2:55.63 | 19662 | 32849 3 | 7:18.00 | 3:46.70 | 32850 | 49869 4 | 11:04.70 | 3:22.40 | 49870 | 65059 5 | 14:27.35 | 2:30.50 | 65060 | 76359 6 | 16:58.10 | 4:09.40 | 76360 | 95074 7 | 21:07.50 | 6:31.65 | 95075 | 124464 8 | 27:39.40 | 3:51.35 | 124465 | 141824 9 | 31:31.00 | 3:37.45 | 141825 | 158144 10 | 35:08.45 | 4:13.00 | 158145 | 177119 11 | 39:21.45 | 3:36.67 | 177120 | 193386 12 | 42:58.37 | 4:49.43 | 193387 | 215104

Характеристики диапазона извлечения и сообщения об ошибках

Выбранный диапазон

Имя файла D:\КОЛЛЕКЦИЯ 00\Новая папка (4)\Beverly Guitar Watkins - Backin Business.wav

Пиковый уровень 99.8 % Качество диапазона 99.9 % CRC теста 02919115 CRC копии 02919115 Копирование... OK

Ошибок не произошло

AccurateRip: сводка

Трек 1 нет в базе данныхТрек 2 нет в базе данныхТрек 3 нет в базе данныхТрек 4 нет в базе данныхТрек 5 нет в базе данныхТрек 6 нет в базе данныхТрек 7 нет в базе данныхТрек 8 нет в базе данныхТрек 9 нет в базе данныхТрек 10 нет в базе данныхТрек 11 нет в базе данныхТрек 12 нет в базе данных

Ни одного трека нет в базе AccurateRip

Конец отчёта


Трекер:  [ 03-Мар-2012 18:44 ]

  

Скачать .torrent

Размер .torrent файла 13 KB


Размер: 322 MB
Хэш (hash) релиза: 4ccf868226078a8fd8558b00cbc457a2af2351fc

Еще никто не оставлял запись к записи скачать торрент Beverly "Guitar" Watkins - Back in Business - 1999, . Будь первым!

!Обратная связь