Скачать через торрент музыку Fatt Cat Freddie - Out of the Bag - 2001, бесплатно без регистрации torrent

Если у вас наблюдаются проблемы со скриншотами, переходом по ссылками, скачиванием торрентов - проблемы в блокировщике рекламы AdBlock. #хорошегоДня!


Статистика раздачи
Размер:  256 MB   |    Зарегистрирован:  5 лет 7 месяцев   |    .torrent скачан:  41 раз   |   
Раздают:  1  
   
Загрузка...
 
Автор Сообщение

Umakiro

avatar Umakiro


Fatt Cat Freddie - Out of the Bag

Жанр: Modern Electric Blues
Год издания диска: 2001
Аудиокодек: APE (*.ape)
Тип рипа: image+.cue
Битрейт аудио: lossless
Продолжительность: 43:11
Источник (релизер): CD
Наличие сканов в содержимом раздачи: да
Треклист:
01. Shotgun Houses [0:03:23.49]
02. Lady Love [0:03:33.42]
03. Can't Go On [0:03:51.90]
04. Everyday Blues [0:06:23.40]
05. Outta Nowhere [0:04:28.26]
06. Through the Pain [0:06:05.73]
07. I Know ( A Lot About You) [0:03:52.26]
08. Leavin' on His Mind [0:04:19.04]
09. Next Time Around [0:04:22.86]
10. 11:59PM [0:02:51.09]
  
Exact Audio Copy V0.99 prebeta 4 from 23. January 2008

Отчёт EAC об извлечении, выполненном 20. апреля 2011, 22:40

Fatt Cat Freddie / Out of the Box

Дисковод: PIONEER DVD-RW DVR-118L Adapter: 0 ID: 0

Режим чтения : ДостоверностьИспользование точного потока : ДаОтключение кэша аудио : ДаИспользование указателей C2 : Нет

Коррекция смещения при чтении : 6Способность читать области Lead-in и Lead-out : НетЗаполнение пропущенных сэмплов тишиной : ДаУдаление блоков с тишиной в начале и конце : НетПри вычислениях CRC использовались нулевые сэмплы : ДаИнтерфейс : Встроенный Win32-интерфейс для Win NT/2000

Выходной формат : Внутренние WAV-операцииФормат сэмплов : 44.100 Гц; 16 бит; стерео

TOC извлечённого CD

Трек | Старт | Длительность | Начальный сектор | Конечный сектор --------------------------------------------------------------------- 1 | 0:00.00 | 3:23.37 | 0 | 15261 2 | 3:23.37 | 3:33.32 | 15262 | 31268 3 | 6:56.69 | 3:51.68 | 31269 | 48661 4 | 10:48.62 | 6:23.30 | 48662 | 77416 5 | 17:12.17 | 4:28.20 | 77417 | 97536 6 | 21:40.37 | 6:05.55 | 97537 | 124966 7 | 27:46.17 | 3:52.20 | 124967 | 142386 8 | 31:38.37 | 4:19.03 | 142387 | 161814 9 | 35:57.40 | 4:22.65 | 161815 | 181529 10 | 40:20.30 | 2:51.07 | 181530 | 194361

Характеристики диапазона извлечения и сообщения об ошибках

Выбранный диапазон

Имя файла D:\КОЛЛЕКЦИЯ 11\Новая папка (11)\Fatt Cat Freddie - Out of the Box.wav

Пиковый уровень 100.0 % Качество диапазона 100.0 % CRC теста F8F0CF2F CRC копии F8F0CF2F Копирование... OK

Ошибок не произошло

AccurateRip: сводка

Трек 1 нет в базе данныхТрек 2 нет в базе данныхТрек 3 нет в базе данныхТрек 4 нет в базе данныхТрек 5 нет в базе данныхТрек 6 нет в базе данныхТрек 7 нет в базе данныхТрек 8 нет в базе данныхТрек 9 нет в базе данныхТрек 10 нет в базе данных

Ни одного трека нет в базе AccurateRip

Конец отчёта


Трекер:  [ 03-Мар-2012 18:44 ]

  

Скачать .torrent

Размер .torrent файла 21 KB


Размер: 256 MB
Хэш (hash) релиза: 1d9287c5da398d6fc4e0210482add4baaeb3f7f3

Еще никто не оставлял запись к записи скачать торрент Fatt Cat Freddie - Out of the Bag - 2001, . Будь первым!

!Обратная связь