Скачать через торрент музыку Joe Louis Walker - Hellfire - 2012, бесплатно без регистрации torrent

Если у вас наблюдаются проблемы со скриншотами, переходом по ссылками, скачиванием торрентов - проблемы в блокировщике рекламы AdBlock. #хорошегоДня!


Статистика раздачи
Размер:  459 MB   |    Зарегистрирован:  5 лет 7 месяцев   |    .torrent скачан:  42 раза   |   
Раздают:  1  
   
Загрузка...
 
Автор Сообщение

Umakiro

avatar Umakiro


Joe Louis Walker - Hellfire

Жанр: Blues
Год издания диска: 2012
Аудиокодек: APE (*.ape)
Тип рипа: image+.cue
Битрейт аудио: lossless
Продолжительность: 53:59
Источник (релизер): pirat CD
Наличие сканов в содержимом раздачи: да
Треклист:
01. Hellfire [0:04:47.58]
02. I Won't Do That [0:05:01.25]
03. Ride All Night [0:04:23.88]
04. I'm On To You [0:03:30.40]
05. What's It Worth [0:06:17.28]
06. Soldier For Jesus [0:05:49.94]
07. I Know Why [0:05:13.37]
08. Too Drunk To Drive Drunk [0:03:56.74]
09. Black Girls [0:05:23.02]
10. Don't Cry [0:05:00.44]
11. Movin' On [0:04:35.45]
  
Exact Audio Copy V0.99 prebeta 4 from 23. January 2008

Отчёт EAC об извлечении, выполненном 26. февраля 2012, 22:53

Joe Louis Walker / Hellfire

Дисковод: Optiarc DVD RW AD-7173A Adapter: 0 ID: 1

Режим чтения : ДостоверностьИспользование точного потока : ДаОтключение кэша аудио : ДаИспользование указателей C2 : Нет

Коррекция смещения при чтении : 48Способность читать области Lead-in и Lead-out : НетЗаполнение пропущенных сэмплов тишиной : ДаУдаление блоков с тишиной в начале и конце : НетПри вычислениях CRC использовались нулевые сэмплы : ДаИнтерфейс : Встроенный Win32-интерфейс для Win NT/2000

Выходной формат : Внутренние WAV-операцииФормат сэмплов : 44.100 Гц; 16 бит; стерео

TOC извлечённого CD

Трек | Старт | Длительность | Начальный сектор | Конечный сектор --------------------------------------------------------------------- 1 | 0:00.00 | 4:47.44 | 0 | 21568 2 | 4:47.44 | 5:01.19 | 21569 | 44162 3 | 9:48.63 | 4:23.66 | 44163 | 63953 4 | 14:12.54 | 3:30.30 | 63954 | 79733 5 | 17:43.09 | 6:17.21 | 79734 | 108029 6 | 24:00.30 | 5:49.71 | 108030 | 134275 7 | 29:50.26 | 5:13.28 | 134276 | 157778 8 | 35:03.54 | 3:56.56 | 157779 | 175534 9 | 39:00.35 | 5:23.02 | 175535 | 199761 10 | 44:23.37 | 5:00.33 | 199762 | 222294 11 | 49:23.70 | 4:35.34 | 222295 | 242953

Характеристики диапазона извлечения и сообщения об ошибках

Выбранный диапазон

Имя файла E:\РАЗДАЧИ\Joe Louis Walker - Hellfire\Joe Louis Walker - Hellfire.wav

Пиковый уровень 100.0 % Качество диапазона 100.0 % CRC теста 7500C3CF CRC копии 7500C3CF Копирование... OK

Ошибок не произошло

AccurateRip: сводка

Трек 1 точность не определена (достоверность 1) [7B45FA9B], AccurateRip вернул [802195BF]Трек 2 точность не определена (достоверность 1) [A051C6A1], AccurateRip вернул [8532FA23]Трек 3 точность не определена (достоверность 1) [9B2EA14D], AccurateRip вернул [3A4D6627]Трек 4 точность не определена (достоверность 1) [69524129], AccurateRip вернул [8BCEAA39]Трек 5 точность не определена (достоверность 1) [20DC6A24], AccurateRip вернул [FA3C258C]Трек 6 точность не определена (достоверность 1) [B58DB3F8], AccurateRip вернул [A2F08A48]Трек 7 точность не определена (достоверность 1) [C0A1D15B], AccurateRip вернул [FA6306D1]Трек 8 точность не определена (достоверность 1) [7E83F13C], AccurateRip вернул [3D33B3A0]Трек 9 точность не определена (достоверность 1) [D30048C3], AccurateRip вернул [A5F30520]Трек 10 точность не определена (достоверность 1) [DB93FD2D], AccurateRip вернул [3FDAEE80]Трек 11 точность не определена (достоверность 1) [62F1A063], AccurateRip вернул [54B8E4B9]

Ни один трек не прошёл проверки на точностьВ вашей базе может быть иной вариант штамповки диска

Конец отчёта


Трекер:  [ 03-Мар-2012 18:43 ]

  

Скачать .torrent

Размер .torrent файла 19 KB


Размер: 459 MB
Хэш (hash) релиза: 83e27a6ca8f7c9104eba998d31fc0cc865babf88

Еще никто не оставлял запись к записи скачать торрент Joe Louis Walker - Hellfire - 2012, . Будь первым!

!Обратная связь