Скачать через торрент Крыс и Шмендра - Дорога на Калланмор - 1999 бесплатно русская версия torrent активатор

Если у вас наблюдаются проблемы со скриншотами, переходом по ссылками, скачиванием торрентов - проблемы в блокировщике рекламы AdBlock. #хорошегоДня!


Статистика раздачи
Размер:  395 MB   |    Зарегистрирован:  5 лет 5 месяцев   |    .torrent скачан:  29 раз   |   
Раздают:  1  
   
Загрузка...
 
Автор Сообщение

Galfimbul

avatar Galfimbul


Крыс и Шмендра - Дорога на Калланмор

Год: 1999
Страна: Россия
Страна-производитель диска: Россия
Жанр: Folk/Ролевое/Менестрель
Тип издания: оригинал
Издатель (лейбл): VMR
Наличие сканов в содержимом раздачи: да
Продолжительность: 01:12:10
Тексты: вшиты
Кодек: ALAC
Программа-риповщик : foobar2000 + iTunes (lossless)
Битрейт: lossless
Треклист:
01. Лугнассад
02. Пепел Нью-Кастла
03. Коронах
04. Фергус Донн и сида
05. Скала Эйстеннахт
06. Песня о славе
07. Недаром с гор спустились
08. Женская песня
09. Переполох в Гленн-Крэхи
10. Кровь
11. Странники
12. Вей, мой ветер
13. Маятник
14. Шабаш
15. Романс
16. Тростник
17. Трасса
  
Exact Audio Copy V0.99 prebeta 4 from 23. January 2008

Отчёт EAC об извлечении, выполненном 17. сентября 2008, 23:42

Крыс и Шмендра / Дорога на Калланмор

Дисковод: _NEC DVD_RW ND-3550A Adapter: 1 ID: 0

Режим чтения : Достоверность Использование точного потока : Да Отключение кэша аудио : Да Использование указателей C2 : Нет

Коррекция смещения при чтении : 48 Способность читать области Lead-in и Lead-out : Нет Заполнение пропущенных сэмплов тишиной : Да Удаление блоков с тишиной в начале и конце : Нет При вычислениях CRC использовались нулевые сэмплы : Да Интерфейс : Встроенный Win32-интерфейс для Win NT/2000

Выходной формат : Внутренние WAV-операции Формат сэмплов : 44.100 Гц; 16 бит; стерео

TOC извлечённого CD

Трек | Старт | Длительность | Начальный сектор | Конечный сектор --------------------------------------------------------------------- 1 | 0:00.00 | 4:25.00 | 0 | 19874 2 | 4:25.00 | 4:26.01 | 19875 | 39825 3 | 8:51.01 | 3:45.00 | 39826 | 56700 4 | 12:36.01 | 6:02.74 | 56701 | 83924 5 | 18:39.00 | 6:45.00 | 83925 | 114299 6 | 25:24.00 | 5:03.74 | 114300 | 137098 7 | 30:27.74 | 2:28.01 | 137099 | 148199 8 | 32:56.00 | 2:34.37 | 148200 | 159786 9 | 35:30.37 | 2:57.01 | 159787 | 173062 10 | 38:27.38 | 4:19.36 | 173063 | 192523 11 | 42:46.74 | 5:31.38 | 192524 | 217386 12 | 48:18.37 | 4:24.37 | 217387 | 237223 13 | 52:42.74 | 4:25.38 | 237224 | 257136 14 | 57:08.37 | 4:11.01 | 257137 | 275962 15 | 61:19.38 | 2:51.74 | 275963 | 288861 16 | 64:11.37 | 4:23.00 | 288862 | 308586 17 | 68:34.37 | 3:35.38 | 308587 | 324749

Характеристики диапазона извлечения и сообщения об ошибках

Выбранный диапазон

Имя файла J:\My Music\Крыс и Шмендра - Дорога на Калланмор.wav

Пиковый уровень 100.0 % Качество диапазона 100.0 % CRC теста DDFD9476 CRC копии DDFD9476 Копирование... OK

Ошибок не произошло

AccurateRip: сводка

Трек 1 нет в базе данных Трек 2 нет в базе данных Трек 3 нет в базе данных Трек 4 нет в базе данных Трек 5 нет в базе данных Трек 6 нет в базе данных Трек 7 нет в базе данных Трек 8 нет в базе данных Трек 9 нет в базе данных Трек 10 нет в базе данных Трек 11 нет в базе данных Трек 12 нет в базе данных Трек 13 нет в базе данных Трек 14 нет в базе данных Трек 15 нет в базе данных Трек 16 нет в базе данных Трек 17 нет в базе данных

Ни одного трека нет в базе AccurateRip

Конец отчёта
  
Started at: пятница, 02. 03. 2012. - 23:03.011 file found

1 -===- F:\Крыс и Шмендра - Дорога на Калланмор\Крыс и Шмендра - Дорога на Калланмор.ape Extracted successfully Conclusion: this track is CDDA with probability 100% Tempfile successfully deleted.

Finished at: пятница, 02. 03. 2012. - 23:09.21 (operation time: 0:06.19)


Трекер:  [ 06-Май-2012 14:46 ]

  

Скачать .torrent

Размер .torrent файла 17 KB


Размер: 395 MB
Хэш (hash) релиза: c729a11d59785d66f24b1e27b976a98f2fda6eaa

Еще никто не оставлял запись к записи скачать торрент Крыс и Шмендра - Дорога на Калланмор - 1999 . Будь первым!

!Обратная связь