Скачать через торрент Louna бесплатно русская версия torrent активатор

Если у вас наблюдаются проблемы со скриншотами, переходом по ссылками, скачиванием торрентов - проблемы в блокировщике рекламы AdBlock. #хорошегоДня!


Статистика раздачи
Размер:  1.15 GB   |    Зарегистрирован:  5 лет 5 месяцев   |    .torrent скачан:  150 раз   |   
Раздают:  1  
   
Загрузка...
 
Автор Сообщение

Galfimbul

avatar Galfimbul




Страна: Россия ll Год: 2010-2012 ll Жанр: Alternative Metal ll Продолжительность: 2,6 часа ll Тексты: вшиты
Обложки: вшиты ll Кодек: ALAC ll Программа-риповщик : foobar2000 + iTunes (lossless) ll Битрейт: lossless
О группе: Пятеро музыкантов - вокалистка Лу и басист Вит из Tracktor Bowling, Рубен Казарьян и Сергей Понкратьев , а также молодой и талантливый барабанщик Пилот - собрались вместе, чтобы воплотить свои творческие идеи, выходящие за музыкальные рамки их основных коллективов. Они объединились в группу, получившую название Louna. Творчество группы сложно отнести к каким-то избитым жанровым определениям. По мнению участников коллектива, "это необычная смесь из альтернативы, пост-гранжа и панка, приправленная восточной этникой и доведенная до кипения откровенно острыми текстами в пронзительном исполнении Лу". Ставка участников группы была сделана на максимальный драйв и мощный звуковой напор в сочетании с интеллектуальной составляющей в текстах.
Треклист
01. Мой Рок-н-Ролл
02. Бойцовский Клуб
03. Бизнес
04. Пока Не Поздно
05. Сделай Громче!
06. Кому Веришь Ты?
07. Свободное Падение (Feat. Д.Спирин)
08. Вендетта
09. Песня О Мире
10. Во Мне
  
Exact Audio Copy V0.99 prebeta 5 from 4. May 2009

EAC extraction logfile from 20. November 2010, 21:43

Louna / Сделай громче!

Used drive : hp DVD RW AD-7561S Adapter: 1 ID: 0

Read mode : SecureUtilize accurate stream : YesDefeat audio cache : YesMake use of C2 pointers : No

Read offset correction : 6Overread into Lead-In and Lead-Out : NoFill up missing offset samples with silence : YesDelete leading and trailing silent blocks : NoNull samples used in CRC calculations : NoUsed interface : Native Win32 interface for Win NT & 2000Gap handling : Appended to previous track

Used output format : User Defined EncoderSelected bitrate : 128 kBit/sQuality : HighAdd ID3 tag : NoCommand line compressor : C:\Program Files (x86)\Exact Audio Copy\Flac\flac.exeAdditional command line options : -V -8 -T "artist=%a" -T "title=%t" -T "album=%g" -T "date=%y" -T "tracknumber=%n" -T "genre=%m" %s

TOC of the extracted CD

Track | Start | Length | Start sector | End sector --------------------------------------------------------- 1 | 0:00.00 | 3:54.39 | 0 | 17588 2 | 3:54.39 | 4:29.47 | 17589 | 37810 3 | 8:24.11 | 3:55.51 | 37811 | 55486 4 | 12:19.62 | 3:02.44 | 55487 | 69180 5 | 15:22.31 | 3:47.65 | 69181 | 86270 6 | 19:10.21 | 4:33.37 | 86271 | 106782 7 | 23:43.58 | 4:16.46 | 106783 | 126028 8 | 28:00.29 | 5:15.74 | 126029 | 149727 9 | 33:16.28 | 5:15.73 | 149728 | 173425 10 | 38:32.26 | 4:42.38 | 173426 | 194613

Track 1

Filename H:\01. Louna - Мой Рок-н-Ролл.wav

Pre-gap length 0:00:02.00

Peak level 100.0 % Track quality 100.0 % Test CRC 8E3CB2BD Copy CRC 8E3CB2BD Copy OK

Track 2

Filename H:\02. Louna - Бойцовский Клуб.wav

Peak level 100.0 % Track quality 99.9 % Test CRC 55558775 Copy CRC 55558775 Copy OK

Track 3

Filename H:\03. Louna - Бизнес.wav

Peak level 100.0 % Track quality 100.0 % Test CRC 2E2E138E Copy CRC 2E2E138E Copy OK

Track 4

Filename H:\04. Louna - Пока не поздно.wav

Peak level 100.0 % Track quality 100.0 % Test CRC 7652EDA2 Copy CRC 7652EDA2 Copy OK

Track 5

Filename H:\05. Louna - Сделай громче!.wav

Peak level 100.0 % Track quality 100.0 % Test CRC D8C48FCA Copy CRC D8C48FCA Copy OK

Track 6

Filename H:\06. Louna - Кому веришь Ты.wav

Peak level 100.0 % Track quality 100.0 % Test CRC 14EC8721 Copy CRC 14EC8721 Copy OK

Track 7

Filename H:\07. Louna - Свободное Падение (feat. Д.Спирин).wav

Peak level 100.0 % Track quality 100.0 % Test CRC CF8BBF57 Copy CRC CF8BBF57 Copy OK

Track 8

Filename H:\08. Louna - Вендетта.wav

Peak level 100.0 % Track quality 100.0 % Test CRC 1C9AEAA1 Copy CRC 1C9AEAA1 Copy OK

Track 9

Filename H:\09. Louna - Песня о Мире.wav

Peak level 100.0 % Track quality 100.0 % Test CRC E3E693C4 Copy CRC E3E693C4 Copy OK

Track 10

Filename H:\10. Louna - Во Мне (feat. E.Khachikian).wav

Peak level 100.0 % Track quality 100.0 % Test CRC 13541C41 Copy CRC 13541C41 Copy OK

No errors occurred

End of status report
01. Армагеддон
02. Сожженая Заживо
03. Зачем
04. Кризис Крайст Суперзвезда
05. Свобода
06. Солнце
07. Все и Ничто
08. Карма Мира
  
Exact Audio Copy V0.99 prebeta 5 from 4. May 2009

EAC extraction logfile from 20. November 2010, 23:18

Louna / Сделай громче!

Used drive : hp DVD RW AD-7561S Adapter: 1 ID: 0

Read mode : SecureUtilize accurate stream : YesDefeat audio cache : YesMake use of C2 pointers : No

Read offset correction : 6Overread into Lead-In and Lead-Out : NoFill up missing offset samples with silence : YesDelete leading and trailing silent blocks : NoNull samples used in CRC calculations : NoUsed interface : Native Win32 interface for Win NT & 2000Gap handling : Not detected, thus appended to previous track

Used output format : User Defined EncoderSelected bitrate : 128 kBit/sQuality : HighAdd ID3 tag : NoCommand line compressor : C:\Program Files (x86)\Exact Audio Copy\Flac\flac.exeAdditional command line options : -V -8 -T "artist=%a" -T "title=%t" -T "album=%g" -T "date=%y" -T "tracknumber=%n" -T "genre=%m" %s

TOC of the extracted CD

Track | Start | Length | Start sector | End sector --------------------------------------------------------- 1 | 0:00.00 | 4:47.48 | 0 | 21572 2 | 4:47.48 | 4:45.54 | 21573 | 43001 3 | 9:33.27 | 3:23.40 | 43002 | 58266 4 | 12:56.67 | 5:12.19 | 58267 | 81685 5 | 18:09.11 | 4:45.48 | 81686 | 103108 6 | 22:54.59 | 5:26.26 | 103109 | 127584 7 | 28:21.10 | 3:56.05 | 127585 | 145289 8 | 32:17.15 | 3:25.15 | 145290 | 160679

Track 1

Filename H:\01. Louna - Армагеддон.wav

Peak level 98.8 % Track quality 100.0 % Test CRC 1FB39BCC Copy CRC 1FB39BCC Copy OK

Track 2

Filename H:\02. Louna - Сожженая Заживо.wav

Peak level 98.8 % Track quality 100.0 % Test CRC F37B7F08 Copy CRC F37B7F08 Copy OK

Track 3

Filename H:\03. Louna - Зачем.wav

Peak level 98.8 % Track quality 99.9 % Test CRC C4BD6D64 Copy CRC C4BD6D64 Copy OK

Track 4

Filename H:\04. Louna - Кризис Крайст Суперзвезда.wav

Peak level 100.0 % Track quality 100.0 % Test CRC 2428120C Copy CRC 2428120C Copy OK

Track 5

Filename H:\05. Louna - Свобода.wav

Peak level 100.0 % Track quality 100.0 % Test CRC 836F6860 Copy CRC 836F6860 Copy OK

Track 6

Filename H:\06. Louna - Солнце.wav

Peak level 98.8 % Track quality 100.0 % Test CRC 8B9697F6 Copy CRC 8B9697F6 Copy OK

Track 7

Filename H:\07. Louna - Все и Ничто.wav

Peak level 100.0 % Track quality 100.0 % Test CRC F933845E Copy CRC F933845E Copy OK

Track 8

Filename H:\08. Louna - Карма Мира.wav

Peak level 98.8 % Track quality 99.9 % Test CRC 5BA35BC9 Copy CRC 5BA35BC9 Copy OK

No errors occurred

End of status report
01. Кому Веришь Ты? (Тэм Version)
02. Кому Веришь Ты? (Louna Version)
03. Кому Веришь Ты? (Album Version)
04. Кому Веришь Ты? (Тэм Instrumental)
05. Кому Веришь Ты? (Louna Instrumental)
  
Exact Audio Copy V1.0 beta 1 from 15. November 2010

EAC extraction logfile from 1. June 2011, 20:09

LOUNA feat. TEM / Кому веришь ты?

Used drive : Optiarc DVD RW AD-7580S Adapter: 0 ID: 1

Read mode : SecureUtilize accurate stream : YesDefeat audio cache : YesMake use of C2 pointers : No

Read offset correction : 6Overread into Lead-In and Lead-Out : NoFill up missing offset samples with silence : YesDelete leading and trailing silent blocks : NoNull samples used in CRC calculations : YesUsed interface : Native Win32 interface for Win NT & 2000

Used output format : Internal WAV RoutinesSample format : 44.100 Hz; 16 Bit; Stereo

TOC of the extracted CD

Track | Start | Length | Start sector | End sector --------------------------------------------------------- 1 | 0:00.00 | 4:42.37 | 0 | 21186 2 | 4:42.37 | 4:34.19 | 21187 | 41755 3 | 9:16.56 | 4:35.09 | 41756 | 62389 4 | 13:51.65 | 4:34.57 | 62390 | 82996 5 | 18:26.47 | 4:36.16 | 82997 | 103712

Range status and errors

Selected range

Filename C:\Users\123\Desktop\LOUNA feat. TEM - Кому веришь ты.wav

Peak level 100.0 % Extraction speed 0.7 X Range quality 100.0 % Test CRC 30F7D43B Copy CRC 30F7D43B Copy OK

No errors occurred

AccurateRip summary

Track 1 not present in databaseTrack 2 not present in databaseTrack 3 not present in databaseTrack 4 not present in databaseTrack 5 not present in database

None of the tracks are present in the AccurateRip database

End of status report
01. Проснись и Пой!
02. Каждый Вправе (Feat. Сергей Михалок)
03. Жесты
04. Словно Форрест Гамп
05. Время X
06. Все Как Один (Feat. Александр "Чача" Иванов)
07. Люди Смотрят Вверх
08. Ночь, Дорога и Рок
09. Мама
10. Против Всех
11. Ящик Пандоры
12. Штурмуя Небеса
13. Кто, Если Не Мы?
14. Мир и Любовь
  
Exact Audio Copy V1.0 beta 3 from 29. August 2011

EAC extraction logfile from 26. February 2012, 17:32

Louna / Время X

Used drive : Optiarc DVD RW AD-7203A Adapter: 4 ID: 0

Read mode : SecureUtilize accurate stream : YesDefeat audio cache : YesMake use of C2 pointers : No

Read offset correction : 48Overread into Lead-In and Lead-Out : NoFill up missing offset samples with silence : YesDelete leading and trailing silent blocks : NoNull samples used in CRC calculations : YesUsed interface : Native Win32 interface for Win NT & 2000Gap handling : Appended to previous track

Used output format : User Defined EncoderSelected bitrate : 1024 kBit/sQuality : HighAdd ID3 tag : NoCommand line compressor : C:\Program Files\Exact Audio Copy\Flac\flac.exeAdditional command line options : -8 -V -T "comment=" -T "ARTIST=%artist%" -T "TITLE=%title%" -T "ALBUM=%albumtitle%" -T "DATE=%year%" -T "TRACKNUMBER=%tracknr%" -T "GENRE=%genre%" -T "PERFORMER=%albuminterpret%" -T "COMPOSER=%composer%" %haslyrics%--tag-from-file=LYRICS="%lyricsfile%"%haslyrics% -T "ALBUMARTIST=%albumartist%" -T "ALBUM ARTIST=%albumartist%" -T "DISCNUMBER=%cdnumber%" -T "TOTALDISCS=%totalcds%" -T "TOTALTRACKS=%numtracks%" %source% -o %dest%

TOC of the extracted CD

Track | Start | Length | Start sector | End sector --------------------------------------------------------- 1 | 0:00.00 | 4:06.46 | 0 | 18495 2 | 4:06.46 | 3:45.33 | 18496 | 35403 3 | 7:52.04 | 3:43.33 | 35404 | 52161 4 | 11:35.37 | 3:25.09 | 52162 | 67545 5 | 15:00.46 | 3:45.61 | 67546 | 84481 6 | 18:46.32 | 2:42.12 | 84482 | 96643 7 | 21:28.44 | 4:25.33 | 96644 | 116551 8 | 25:54.02 | 3:12.68 | 116552 | 131019 9 | 29:06.70 | 3:58.25 | 131020 | 148894 10 | 33:05.20 | 3:54.03 | 148895 | 166447 11 | 36:59.23 | 4:59.04 | 166448 | 188876 12 | 41:58.27 | 3:59.07 | 188877 | 206808 13 | 45:57.34 | 4:14.09 | 206809 | 225867 14 | 50:11.43 | 4:27.16 | 225868 | 245908

Track 1

Filename D:\Музыка во FLAC\Change.CD\Louna\Louna - 2012 - Время X [FLAC]\01. Louna - Проснись и Пой!.wav

Pre-gap length 0:00:02.00

Peak level 98.8 % Extraction speed 2.3 X Track quality 100.0 % Test CRC C3BF8CAC Copy CRC C3BF8CAC Track not present in AccurateRip database Copy OK

Track 2

Filename D:\Музыка во FLAC\Change.CD\Louna\Louna - 2012 - Время X [FLAC]\02. Louna - Каждый Вправе (feat. Сергей Михалок).wav

Pre-gap length 0:00:02.00

Peak level 98.8 % Extraction speed 2.2 X Track quality 99.9 % Test CRC F18037DB Copy CRC F18037DB Track not present in AccurateRip database Copy OK

Track 3

Filename D:\Музыка во FLAC\Change.CD\Louna\Louna - 2012 - Время X [FLAC]\03. Louna - Жесты.wav

Pre-gap length 0:00:02.00

Peak level 98.8 % Extraction speed 2.4 X Track quality 99.9 % Test CRC 3B02866F Copy CRC 3B02866F Track not present in AccurateRip database Copy OK

Track 4

Filename D:\Музыка во FLAC\Change.CD\Louna\Louna - 2012 - Время X [FLAC]\04. Louna - Словно Форрест Гамп.wav

Pre-gap length 0:00:02.00

Peak level 98.8 % Extraction speed 2.8 X Track quality 100.0 % Test CRC 0722FB4B Copy CRC 0722FB4B Track not present in AccurateRip database Copy OK

Track 5

Filename D:\Музыка во FLAC\Change.CD\Louna\Louna - 2012 - Время X [FLAC]\05. Louna - Время X.wav

Pre-gap length 0:00:02.00

Peak level 98.8 % Extraction speed 3.1 X Track quality 100.0 % Test CRC D576FEB8 Copy CRC D576FEB8 Track not present in AccurateRip database Copy OK

Track 6

Filename D:\Музыка во FLAC\Change.CD\Louna\Louna - 2012 - Время X [FLAC]\06. Louna - Все Как Один (feat. Александр ''Чача'' Иванов).wav

Pre-gap length 0:00:02.00

Peak level 98.8 % Extraction speed 3.1 X Track quality 100.0 % Test CRC F75CCE3E Copy CRC F75CCE3E Track not present in AccurateRip database Copy OK

Track 7

Filename D:\Музыка во FLAC\Change.CD\Louna\Louna - 2012 - Время X [FLAC]\07. Louna - Люди Смотрят Вверх.wav

Pre-gap length 0:00:02.00

Peak level 98.8 % Extraction speed 3.6 X Track quality 100.0 % Test CRC F2C8A220 Copy CRC F2C8A220 Track not present in AccurateRip database Copy OK

Track 8

Filename D:\Музыка во FLAC\Change.CD\Louna\Louna - 2012 - Время X [FLAC]\08. Louna - Ночь, Дорога и Рок.wav

Pre-gap length 0:00:02.00

Peak level 98.8 % Extraction speed 3.0 X Track quality 99.9 % Test CRC 52573DEC Copy CRC 52573DEC Track not present in AccurateRip database Copy OK

Track 9

Filename D:\Музыка во FLAC\Change.CD\Louna\Louna - 2012 - Время X [FLAC]\09. Louna - Мама.wav

Pre-gap length 0:00:02.00

Peak level 98.8 % Extraction speed 3.8 X Track quality 100.0 % Test CRC 8B8FEA1C Copy CRC 8B8FEA1C Track not present in AccurateRip database Copy OK

Track 10

Filename D:\Музыка во FLAC\Change.CD\Louna\Louna - 2012 - Время X [FLAC]\10. Louna - Против Всех.wav

Pre-gap length 0:00:02.00

Peak level 98.8 % Extraction speed 3.4 X Track quality 99.9 % Test CRC 16C6661E Copy CRC 16C6661E Track not present in AccurateRip database Copy OK

Track 11

Filename D:\Музыка во FLAC\Change.CD\Louna\Louna - 2012 - Время X [FLAC]\11. Louna - Ящик Пандоры.wav

Pre-gap length 0:00:02.00

Peak level 98.8 % Extraction speed 4.2 X Track quality 100.0 % Test CRC 982CF159 Copy CRC 982CF159 Track not present in AccurateRip database Copy OK

Track 12

Filename D:\Музыка во FLAC\Change.CD\Louna\Louna - 2012 - Время X [FLAC]\12. Louna - Штурмуя Небеса.wav

Pre-gap length 0:00:02.00

Peak level 98.8 % Extraction speed 4.2 X Track quality 100.0 % Test CRC 01D23E0D Copy CRC 01D23E0D Track not present in AccurateRip database Copy OK

Track 13

Filename D:\Музыка во FLAC\Change.CD\Louna\Louna - 2012 - Время X [FLAC]\13. Louna - Кто, Если не Мы.wav

Pre-gap length 0:00:02.00

Peak level 98.8 % Extraction speed 4.5 X Track quality 100.0 % Test CRC 2F340779 Copy CRC 2F340779 Track not present in AccurateRip database Copy OK

Track 14

Filename D:\Музыка во FLAC\Change.CD\Louna\Louna - 2012 - Время X [FLAC]\14. Louna - Мир и Любовь.wav

Pre-gap length 0:00:02.00

Peak level 98.8 % Extraction speed 4.6 X Track quality 100.0 % Test CRC 5023C181 Copy CRC 5023C181 Track not present in AccurateRip database Copy OK

None of the tracks are present in the AccurateRip database

No errors occurred

End of status report

---- CUETools DB Plugin V2.1.3

[CTDB TOCID: aWEtVmtG7XG_ivgIS8na0NUnnh4-] disk not present in database, Submit result: aWEtVmtG7XG_ivgIS8na0NUnnh4- has been uploaded

==== Log checksum 2858582742849FE5D1CAB87EB98C49BC826EE6B04867A84BDC66EEB70C61B208 ====

Добавлен альбом 2012 года "Время X"


Трекер:  [ 06-Май-2012 14:47 ]

  

Скачать .torrent

Размер .torrent файла 15 KB


Размер: 1.15 GB
Хэш (hash) релиза: d9660b039f1453a648bfa303282fd62b07d3b4ae

Еще никто не оставлял запись к записи скачать торрент Louna . Будь первым!

!Обратная связь